<font horiz-adv-x="1000">
<!-- Source is a trademark of Adobe Systems Incorporated in the United States and/or other countries. -->
<font-face font-family="SourceSansPro-Light" units-per-em="1000" underline-position="-100" underline-thickness="50"/>
<missing-glyph horiz-adv-x="632" d="M94,0l444,0l0,660l-444,0 z M139,84l0,516l147,-260 z M346,340l145,260l0,-516 z M158,39l95,164l61,105l4,0l59,-105l93,-164 z M314,372l-54,92l-87,155l284,0l-86,-155l-53,-92z"/>
<glyph unicode=" " horiz-adv-x="199"/>
<glyph unicode="A" horiz-adv-x="526" d="M146,265l42,123C215,466 238,535 261,616l4,0C288,535 311,466 338,388l42,-123 z M470,0l48,0l-232,659l-46,0l-232,-659l46,0l78,226l261,0z"/>
<glyph unicode="B" horiz-adv-x="578" d="M97,0l191,0C437,0 533,65 533,192C533,283 473,337 376,351l0,4C453,375 493,430 493,499C493,609 408,659 275,659l-178,0 z M143,369l0,252l119,0C383,621 447,585 447,500C447,413 392,369 257,369 z M143,38l0,294l133,0C411,332 488,286 488,192C488,86 407,38 276,38z"/>
<glyph unicode="C" horiz-adv-x="564" d="M55,331C55,121 168,-12 331,-12C416,-12 476,24 527,82l-28,29C451,57 401,30 333,30C191,30 103,148 103,331C103,514 192,629 337,629C397,629 445,602 480,562l28,30C473,633 413,671 337,671C169,671 55,540 55,331z"/>
<glyph unicode="D" horiz-adv-x="604" d="M97,0l154,0C453,0 549,132 549,332C549,531 453,659 250,659l-153,0 z M143,39l0,581l102,0C424,620 501,503 501,332C501,160 424,39 245,39z"/>
<glyph unicode="E" horiz-adv-x="515" d="M97,0l371,0l0,40l-325,0l0,290l264,0l0,40l-264,0l0,249l315,0l0,40l-361,0z"/>
<glyph unicode="F" horiz-adv-x="477" d="M97,0l46,0l0,317l265,0l0,40l-265,0l0,262l313,0l0,40l-359,0z"/>
<glyph unicode="G" horiz-adv-x="605" d="M55,331C55,121 168,-12 337,-12C424,-12 492,19 533,63l0,261l-202,0l0,-39l158,0l0,-205C457,48 401,30 341,30C191,30 103,148 103,331C103,514 196,629 347,629C419,629 465,599 499,562l27,30C491,629 435,671 347,671C172,671 55,540 55,331z"/>
<glyph unicode="H" horiz-adv-x="639" d="M97,0l46,0l0,330l353,0l0,-330l46,0l0,659l-46,0l0,-289l-353,0l0,289l-46,0z"/>
<glyph unicode="I" horiz-adv-x="240" d="M97,0l46,0l0,659l-46,0z"/>
<glyph unicode="J" horiz-adv-x="462" d="M41,85C74,23 130,-12 203,-12C323,-12 367,73 367,179l0,480l-46,0l0,-475C321,77 283,30 203,30C148,30 108,52 76,108z"/>
<glyph unicode="K" horiz-adv-x="558" d="M97,0l46,0l0,227l134,153l218,-380l53,0l-239,415l210,244l-55,0l-319,-366l-2,0l0,366l-46,0z"/>
<glyph unicode="L" horiz-adv-x="467" d="M97,0l350,0l0,40l-304,0l0,619l-46,0z"/>
<glyph unicode="M" horiz-adv-x="706" d="M97,0l43,0l0,433C140,487 137,556 134,611l4,0l52,-145l142,-394l41,0l141,394l52,145l4,0C567,556 564,487 564,433l0,-433l45,0l0,659l-65,0l-138,-387l-50,-146l-4,0l-52,146l-138,387l-65,0z"/>
<glyph unicode="N" horiz-adv-x="636" d="M97,0l44,0l0,409C141,473 137,533 135,596l4,0l74,-131l278,-465l48,0l0,659l-44,0l0,-404C495,191 499,127 501,63l-4,0l-74,131l-278,465l-48,0z"/>
<glyph unicode="O" horiz-adv-x="652" d="M326,-12C485,-12 598,123 598,332C598,540 485,671 326,671C168,671 55,540 55,332C55,123 168,-12 326,-12 z M326,30C192,30 103,149 103,332C103,514 192,629 326,629C460,629 549,514 549,332C549,149 460,30 326,30z"/>
<glyph unicode="P" horiz-adv-x="559" d="M97,0l46,0l0,283l134,0C424,283 512,346 512,475C512,611 424,659 277,659l-180,0 z M143,322l0,298l123,0C400,620 465,586 465,475C465,367 400,322 266,322z"/>
<glyph unicode="Q" horiz-adv-x="652" d="M103,332C103,514 192,629 326,629C460,629 549,514 549,332C549,148 460,27 326,27C192,27 103,148 103,332 z M590,-104C573,-109 553,-113 523,-113C441,-113 381,-77 351,-11C497,3 598,134 598,332C598,540 485,671 326,671C168,671 55,540 55,332C55,135 156,3 300,-11C333,-94 408,-155 519,-155C552,-155 583,-149 600,-144z"/>
<glyph unicode="R" horiz-adv-x="560" d="M143,341l0,279l131,0C390,620 455,584 455,485C455,388 390,341 274,341 z M515,0l-182,306C437,319 502,380 502,485C502,611 417,659 286,659l-189,0l0,-659l46,0l0,303l140,0l179,-303z"/>
<glyph unicode="S" horiz-adv-x="521" d="M46,87C98,29 173,-12 269,-12C397,-12 480,64 480,165C480,266 415,307 341,340l-100,44C193,406 127,435 127,511C127,583 186,629 273,629C339,629 391,602 430,561l26,31C416,635 352,671 273,671C163,671 81,604 81,509C81,411 157,370 215,345l100,-45C380,271 433,244 433,162C433,84 370,30 269,30C193,30 124,65 76,119z"/>
<glyph unicode="T" horiz-adv-x="524" d="M239,0l46,0l0,619l210,0l0,40l-466,0l0,-40l210,0z"/>
<glyph unicode="U" horiz-adv-x="634" d="M95,253C95,47 203,-12 316,-12C430,-12 539,47 539,253l0,406l-43,0l0,-401C496,83 411,30 316,30C223,30 141,83 141,258l0,401l-46,0z"/>
<glyph unicode="V" horiz-adv-x="491" d="M222,0l49,0l216,659l-47,0l-122,-385C293,194 276,133 249,53l-4,0C218,133 200,194 175,274l-122,385l-49,0z"/>
<glyph unicode="W" horiz-adv-x="770" d="M178,0l50,0l118,452C358,504 372,549 383,601l4,0C398,549 410,504 422,452l120,-452l51,0l147,659l-45,0l-83,-388C597,199 584,128 569,56l-4,0C547,128 530,199 512,271l-103,388l-47,0l-103,-388C241,199 224,127 208,56l-4,0C189,127 174,199 159,271l-83,388l-48,0z"/>
<glyph unicode="X" horiz-adv-x="482" d="M17,0l47,0l115,202C197,235 214,267 235,307l4,0C263,267 282,235 300,202l115,-202l50,0l-198,339l184,320l-47,0l-108,-194C278,435 266,411 247,375l-4,0C221,411 207,435 189,465l-108,194l-50,0l184,-318z"/>
<glyph unicode="Y" horiz-adv-x="447" d="M200,0l46,0l0,267l198,392l-47,0l-100,-206C276,405 251,359 226,311l-4,0C196,359 175,405 152,453l-100,206l-49,0l197,-392z"/>
<glyph unicode="Z" horiz-adv-x="538" d="M50,0l440,0l0,40l-383,0l380,592l0,27l-404,0l0,-40l346,0l-379,-592z"/>
<glyph unicode="a" horiz-adv-x="499" d="M65,120C65,29 129,-12 205,-12C268,-12 326,23 375,62l2,0l5,-62l37,0l0,307C419,410 381,492 267,492C189,492 123,454 89,430l20,-33C141,421 197,453 262,453C356,453 377,374 375,301C162,277 65,226 65,120 z M111,122C111,198 178,244 375,267l0,-163C316,53 267,26 212,26C157,26 111,53 111,122z"/>
<glyph unicode="b" horiz-adv-x="544" d="M92,0l37,0l5,45l2,0C181,10 234,-12 280,-12C393,-12 492,84 492,247C492,396 428,492 300,492C241,492 183,458 134,417l2,94l0,208l-44,0 z M136,89l0,285C193,425 245,453 293,453C403,453 445,365 445,247C445,117 375,27 278,27C241,27 189,44 136,89z"/>
<glyph unicode="c" horiz-adv-x="449" d="M52,239C52,80 146,-12 270,-12C331,-12 382,15 423,52l-23,30C367,52 323,27 272,27C167,27 98,113 98,239C98,366 174,453 272,453C319,453 355,431 386,402l26,31C380,463 337,492 271,492C154,492 52,400 52,239z"/>
<glyph unicode="d" horiz-adv-x="544" d="M52,239C52,77 130,-12 251,-12C315,-12 368,23 407,62l3,0l4,-62l38,0l0,719l-44,0l0,-198l2,-88C362,470 323,492 265,492C151,492 52,394 52,239 z M99,239C99,360 172,453 268,453C315,453 357,436 408,391l0,-285C357,55 310,27 257,27C155,27 99,112 99,239z"/>
<glyph unicode="e" horiz-adv-x="483" d="M52,239C52,82 151,-12 274,-12C344,-12 387,12 425,35l-18,34C371,43 330,26 278,26C170,26 99,113 97,234l346,0C445,246 445,258 445,270C445,411 375,492 261,492C154,492 52,396 52,239 z M97,268C107,383 180,454 262,454C348,454 403,391 403,268z"/>
<glyph unicode="f" horiz-adv-x="263" d="M288,715C266,725 240,731 218,731C142,731 99,682 99,587l0,-107l-66,-4l0,-34l66,0l0,-442l44,0l0,442l111,0l0,38l-111,0l0,104C143,653 167,693 218,693C236,693 256,689 276,679z"/>
<glyph unicode="g" horiz-adv-x="487" d="M94,-94C94,-60 113,-23 157,7C182,1 207,-1 217,-1l103,0C392,-1 431,-21 431,-74C431,-134 362,-195 254,-195C152,-195 94,-154 94,-94 z M52,-98C52,-179 128,-231 249,-231C387,-231 476,-152 476,-69C476,7 426,41 318,41l-103,0C143,41 123,69 123,104C123,136 141,156 162,173C184,160 215,153 242,153C336,153 409,224 409,322C409,373 387,416 356,443l112,0l0,37l-163,0C290,486 268,492 242,492C148,492 73,422 73,323C73,265 103,217 133,191l0,-4C112,172 81,142 81,99C81,62 99,36 123,22l0,-4C79,-14 52,-56 52,-98 z M242,188C175,188 117,242 117,323C117,405 174,456 242,456C310,456 366,404 366,323C366,242 308,188 242,188z"/>
<glyph unicode="h" horiz-adv-x="528" d="M92,0l44,0l0,362C195,422 236,452 293,452C371,452 403,404 403,302l0,-302l44,0l0,308C447,432 401,492 302,492C236,492 186,455 136,405l0,106l0,208l-44,0z"/>
<glyph unicode="i" horiz-adv-x="229" d="M115,596C137,596 155,612 155,635C155,660 137,675 115,675C93,675 75,660 75,635C75,612 93,596 115,596 z M92,0l44,0l0,480l-44,0z"/>
<glyph unicode="j" horiz-adv-x="229" d="M92,-86C92,-147 82,-191 28,-191C9,-191 -10,-185 -22,-181l-11,-36C-18,-223 6,-229 29,-229C103,-229 137,-183 137,-89l0,569l-45,0 z M115,596C137,596 156,612 156,635C156,660 137,675 115,675C94,675 75,660 75,635C75,612 94,596 115,596z"/>
<glyph unicode="k" horiz-adv-x="464" d="M92,0l44,0l0,131l108,126l159,-257l49,0l-182,290l156,190l-51,0l-237,-291l-2,0l0,530l-44,0z"/>
<glyph unicode="l" horiz-adv-x="237" d="M92,64C92,12 112,-12 151,-12C165,-12 174,-10 183,-7l-8,36C165,27 161,27 157,27C145,27 136,37 136,58l0,661l-44,0z"/>
<glyph unicode="m" horiz-adv-x="812" d="M92,0l44,0l0,362C189,422 237,452 280,452C354,452 388,404 388,302l0,-302l44,0l0,362C485,422 531,452 576,452C649,452 683,404 683,302l0,-302l45,0l0,308C728,432 680,492 584,492C529,492 476,454 421,394C404,453 365,492 288,492C235,492 180,455 137,406l-3,0l-4,74l-38,0z"/>
<glyph unicode="n" horiz-adv-x="532" d="M92,0l44,0l0,362C195,422 236,452 293,452C371,452 403,404 403,302l0,-302l44,0l0,308C447,432 401,492 302,492C236,492 186,455 137,406l-3,0l-4,74l-38,0z"/>
<glyph unicode="o" horiz-adv-x="535" d="M52,239C52,80 152,-12 267,-12C383,-12 483,80 483,239C483,400 383,492 267,492C152,492 52,400 52,239 z M98,239C98,366 170,453 267,453C364,453 437,366 437,239C437,113 364,27 267,27C170,27 98,113 98,239z"/>
<glyph unicode="p" horiz-adv-x="544" d="M136,47C186,10 235,-12 280,-12C393,-12 492,84 492,247C492,396 428,492 300,492C241,492 184,457 137,420l-3,0l-4,60l-38,0l0,-697l44,0l0,175 z M136,89l0,285C194,425 245,453 293,453C403,453 445,365 445,247C445,117 375,27 278,27C241,27 191,44 136,89z"/>
<glyph unicode="q" horiz-adv-x="537" d="M52,239C52,77 130,-12 251,-12C314,-12 367,22 410,61l-2,-93l0,-185l44,0l0,697l-37,0l-5,-44l-2,0C363,471 323,492 265,492C151,492 52,394 52,239 z M99,239C99,360 172,453 268,453C315,453 357,436 408,391l0,-285C357,55 310,27 257,27C155,27 99,112 99,239z"/>
<glyph unicode="r" horiz-adv-x="317" d="M92,0l44,0l0,327C173,417 224,450 267,450C286,450 295,448 311,442l10,40C305,490 291,492 273,492C216,492 169,450 137,391l-3,0l-4,89l-38,0z"/>
<glyph unicode="s" horiz-adv-x="405" d="M32,54C75,18 137,-12 208,-12C312,-12 370,51 370,123C370,217 288,242 213,270C156,291 100,312 100,367C100,411 134,454 208,454C257,454 291,435 323,411l24,31C312,471 261,492 210,492C110,492 55,434 55,364C55,282 135,253 208,227C263,207 325,181 325,121C325,70 286,26 211,26C142,26 99,53 58,87z"/>
<glyph unicode="t" horiz-adv-x="312" d="M103,133C103,47 130,-12 223,-12C243,-12 273,-4 301,6l-12,36C272,34 247,27 229,27C163,27 148,68 148,129l0,313l139,0l0,38l-139,0l0,139l-38,0l-6,-139l-76,-4l0,-34l75,0z"/>
<glyph unicode="u" horiz-adv-x="529" d="M85,172C85,48 131,-12 230,-12C296,-12 346,25 393,80l2,0l5,-80l37,0l0,480l-44,0l0,-354C337,58 295,28 238,28C161,28 129,76 129,178l0,302l-44,0z"/>
<glyph unicode="v" horiz-adv-x="434" d="M192,0l52,0l178,480l-45,0l-108,-301C253,133 236,85 220,41l-4,0C201,85 183,133 168,179l-108,301l-48,0z"/>
<glyph unicode="w" horiz-adv-x="685" d="M166,0l53,0l83,296C317,342 329,388 340,435l4,0C358,388 367,344 381,298l84,-298l58,0l138,480l-45,0l-85,-311C520,125 508,84 497,41l-4,0C481,84 469,125 457,169l-87,311l-53,0l-87,-311C218,125 206,84 195,41l-4,0C181,84 170,125 158,169l-86,311l-48,0z"/>
<glyph unicode="x" horiz-adv-x="407" d="M14,0l47,0l82,131C162,161 179,191 198,219l4,0C222,191 241,161 259,131l85,-131l49,0l-163,247l149,233l-46,0l-75,-122C241,332 226,305 209,279l-4,0C187,305 170,332 154,358l-78,122l-49,0l150,-229z"/>
<glyph unicode="y" horiz-adv-x="436" d="M34,-170l-10,-39C37,-215 55,-219 73,-219C159,-219 207,-140 234,-60l190,540l-45,0l-103,-302C263,138 247,86 232,44l-4,0C210,86 191,138 176,178l-116,302l-48,0l197,-489l-13,-42C172,-124 132,-178 73,-178C59,-178 44,-174 34,-170z"/>
<glyph unicode="z" horiz-adv-x="404" d="M27,0l351,0l0,39l-293,0l283,418l0,23l-310,0l0,-38l253,0l-284,-418z"/>
<glyph unicode="&#xC0;" horiz-adv-x="526" d="M300,709l-92,106l-58,0l109,-106 z M146,265l42,123C215,466 238,535 261,616l4,0C288,535 311,466 338,388l42,-123 z M470,0l48,0l-232,659l-46,0l-232,-659l46,0l78,226l261,0z"/>
<glyph unicode="&#xC1;" horiz-adv-x="526" d="M376,815l-58,0l-92,-106l40,0 z M146,265l42,123C215,466 238,535 261,616l4,0C288,535 311,466 338,388l42,-123 z M470,0l48,0l-232,659l-46,0l-232,-659l46,0l78,226l261,0z"/>
<glyph unicode="&#xC2;" horiz-adv-x="526" d="M261,781l4,0l75,-72l40,0l-96,106l-42,0l-96,-106l40,0 z M146,265l42,123C215,466 238,535 261,616l4,0C288,535 311,466 338,388l42,-123 z M470,0l48,0l-232,659l-46,0l-232,-659l46,0l78,226l261,0z"/>
<glyph unicode="&#xC3;" horiz-adv-x="526" d="M364,808C360,774 344,752 322,752C282,752 256,808 204,808C159,808 136,761 133,716l29,0C166,750 182,773 203,773C244,773 269,716 321,716C366,716 389,764 392,808 z M146,265l42,123C215,466 238,535 261,616l4,0C288,535 311,466 338,388l42,-123 z M470,0l48,0l-232,659l-46,0l-232,-659l46,0l78,226l261,0z"/>
<glyph unicode="&#xC4;" horiz-adv-x="526" d="M342,725C362,725 378,739 378,761C378,784 362,798 342,798C321,798 305,784 305,761C305,739 321,725 342,725 z M184,725C205,725 221,739 221,761C221,784 205,798 184,798C163,798 147,784 147,761C147,739 163,725 184,725 z M146,265l42,123C215,466 238,535 261,616l4,0C288,535 311,466 338,388l42,-123 z M470,0l48,0l-232,659l-46,0l-232,-659l46,0l78,226l261,0z"/>
<glyph unicode="&#x100;" horiz-adv-x="526" d="M377,770l-228,0l0,-36l228,0 z M146,265l42,123C215,466 238,535 261,616l4,0C288,535 311,466 338,388l42,-123 z M470,0l48,0l-232,659l-46,0l-232,-659l46,0l78,226l261,0z"/>
<glyph unicode="&#x102;" horiz-adv-x="526" d="M345,815C339,780 314,743 263,743C211,743 186,780 180,815l-32,0C154,769 187,711 263,711C338,711 372,769 378,815 z M146,265l42,123C215,466 238,535 261,616l4,0C288,535 311,466 338,388l42,-123 z M470,0l48,0l-232,659l-46,0l-232,-659l46,0l78,226l261,0z"/>
<glyph unicode="&#xC5;" horiz-adv-x="526" d="M263,838C290,838 313,817 313,782C313,745 290,726 263,726C234,726 210,745 210,782C210,817 234,838 263,838 z M263,700C308,700 345,732 345,782C345,831 308,864 263,864C216,864 181,831 181,782C181,732 216,700 263,700 z M146,265l42,123C215,466 238,535 261,616l4,0C288,535 311,466 338,388l42,-123 z M470,0l48,0l-232,659l-46,0l-232,-659l46,0l78,226l261,0z"/>
<glyph unicode="&#x1CD;" horiz-adv-x="526" d="M284,709l96,106l-40,0l-75,-72l-4,0l-75,72l-40,0l96,-106 z M146,265l42,123C215,466 238,535 261,616l4,0C288,535 311,466 338,388l42,-123 z M470,0l48,0l-232,659l-46,0l-232,-659l46,0l78,226l261,0z"/>
<glyph unicode="&#x1EA0;" horiz-adv-x="526" d="M263,-114C241,-114 225,-130 225,-153C225,-178 241,-194 263,-194C284,-194 301,-178 301,-153C301,-130 284,-114 263,-114 z M146,265l42,123C215,466 238,535 261,616l4,0C288,535 311,466 338,388l42,-123 z M518,0l-232,659l-46,0l-232,-659l46,0l78,226l261,0l77,-226z"/>
<glyph unicode="&#x1EA2;" horiz-adv-x="526" d="M239,702C287,715 333,737 333,789C333,839 279,861 213,863l-4,-32C263,829 294,814 294,783C294,755 267,740 231,729 z M146,265l42,123C215,466 238,535 261,616l4,0C288,535 311,466 338,388l42,-123 z M470,0l48,0l-232,659l-46,0l-232,-659l46,0l78,226l261,0z"/>
<glyph unicode="&#x1EA4;" horiz-adv-x="526" d="M460,876l-47,0l-71,-106l33,0 z M261,775l4,0l69,-66l39,0l-90,100l-40,0l-91,-100l39,0 z M146,265l42,123C215,466 238,535 261,616l4,0C288,535 311,466 338,388l42,-123 z M470,0l48,0l-232,659l-46,0l-232,-659l46,0l78,226l261,0z"/>
<glyph unicode="&#x1EA6;" horiz-adv-x="526" d="M415,770l-72,106l-47,0l86,-106 z M261,775l4,0l69,-66l39,0l-90,100l-40,0l-91,-100l39,0 z M146,265l42,123C215,466 238,535 261,616l4,0C288,535 311,466 338,388l42,-123 z M470,0l48,0l-232,659l-46,0l-232,-659l46,0l78,226l261,0z"/>
<glyph unicode="&#x1EA8;" horiz-adv-x="526" d="M365,757C402,766 444,785 444,831C444,878 397,896 338,899l-5,-31C381,866 406,856 406,826C406,803 383,791 355,784 z M261,775l4,0l69,-66l39,0l-90,100l-40,0l-91,-100l39,0 z M146,265l42,123C215,466 238,535 261,616l4,0C288,535 311,466 338,388l42,-123 z M470,0l48,0l-232,659l-46,0l-232,-659l46,0l78,226l261,0z"/>
<glyph unicode="&#x1EAA;" horiz-adv-x="526" d="M356,924C351,894 336,875 314,875C279,875 260,924 212,924C165,924 144,881 141,843l29,0C174,873 190,892 211,892C246,892 266,843 314,843C360,843 382,886 385,924 z M243,809l-91,-100l39,0l70,66l4,0l69,-66l39,0l-90,100 z M146,265l42,123C215,466 238,535 261,616l4,0C288,535 311,466 338,388l42,-123 z M470,0l48,0l-232,659l-46,0l-232,-659l46,0l78,226l261,0z"/>
<glyph unicode="&#x1EAC;" horiz-adv-x="526" d="M261,781l4,0l75,-72l40,0l-96,106l-42,0l-96,-106l40,0 z M263,-114C241,-114 225,-130 225,-153C225,-178 241,-194 263,-194C284,-194 301,-178 301,-153C301,-130 284,-114 263,-114 z M146,265l42,123C215,466 238,535 261,616l4,0C288,535 311,466 338,388l42,-123 z M518,0l-232,659l-46,0l-232,-659l46,0l78,226l261,0l77,-226z"/>
<glyph unicode="&#x1EAE;" horiz-adv-x="526" d="M356,896l-49,0l-79,-97l33,0 z M345,811C337,776 314,742 263,742C212,742 189,776 181,811l-31,0C156,766 191,711 263,711C335,711 370,766 376,811 z M146,265l42,123C215,466 238,535 261,616l4,0C288,535 311,466 338,388l42,-123 z M470,0l48,0l-232,659l-46,0l-232,-659l46,0l78,226l261,0z"/>
<glyph unicode="&#x1EB0;" horiz-adv-x="526" d="M298,799l-80,97l-48,0l94,-97 z M345,811C337,776 314,742 263,742C212,742 189,776 181,811l-31,0C156,766 191,711 263,711C335,711 370,766 376,811 z M146,265l42,123C215,466 238,535 261,616l4,0C288,535 311,466 338,388l42,-123 z M470,0l48,0l-232,659l-46,0l-232,-659l46,0l78,226l261,0z"/>
<glyph unicode="&#x1EB2;" horiz-adv-x="526" d="M246,797C283,807 325,825 325,871C325,919 278,937 219,939l-5,-30C262,906 287,896 287,866C287,843 264,832 236,824 z M345,811C337,776 314,742 263,742C212,742 189,776 181,811l-31,0C156,766 191,711 263,711C335,711 370,766 376,811 z M146,265l42,123C215,466 238,535 261,616l4,0C288,535 311,466 338,388l42,-123 z M470,0l48,0l-232,659l-46,0l-232,-659l46,0l78,226l261,0z"/>
<glyph unicode="&#x1EB4;" horiz-adv-x="526" d="M356,924C351,894 336,875 314,875C279,875 260,924 212,924C165,924 144,881 141,843l29,0C174,873 190,892 211,892C246,892 266,843 314,843C360,843 382,886 385,924 z M150,811C156,766 191,711 263,711C335,711 370,766 376,811l-31,0C337,776 314,742 263,742C212,742 189,776 181,811 z M146,265l42,123C215,466 238,535 261,616l4,0C288,535 311,466 338,388l42,-123 z M470,0l48,0l-232,659l-46,0l-232,-659l46,0l78,226l261,0z"/>
<glyph unicode="&#x1EB6;" horiz-adv-x="526" d="M345,815C339,780 314,743 263,743C211,743 186,780 180,815l-32,0C154,769 187,711 263,711C338,711 372,769 378,815 z M263,-114C241,-114 225,-130 225,-153C225,-178 241,-194 263,-194C284,-194 301,-178 301,-153C301,-130 284,-114 263,-114 z M146,265l42,123C215,466 238,535 261,616l4,0C288,535 311,466 338,388l42,-123 z M518,0l-232,659l-46,0l-232,-659l46,0l78,226l261,0l77,-226z"/>
<glyph unicode="&#x104;" horiz-adv-x="526" d="M146,265l42,123C215,466 238,535 261,616l4,0C288,535 311,466 338,388l42,-123 z M538,-154C525,-164 512,-168 495,-168C469,-168 444,-151 444,-116C444,-75 477,-27 518,0l-232,659l-46,0l-232,-659l46,0l78,226l261,0l77,-226l6,0C441,-25 405,-73 405,-123C405,-178 443,-205 489,-205C511,-205 539,-194 554,-181z"/>
<glyph unicode="&#xC6;" horiz-adv-x="809" d="M210,255l73,133C325,467 366,545 407,619l4,0l0,-364 z M457,40l0,290l245,0l0,40l-245,0l0,249l295,0l0,40l-366,0l-365,-659l49,0l119,217l222,0l0,-217l351,0l0,40z"/>
<glyph unicode="&#xC7;" horiz-adv-x="564" d="M499,111C451,57 401,30 333,30C191,30 103,148 103,331C103,514 192,629 337,629C397,629 445,602 480,562l28,30C473,633 413,671 337,671C169,671 55,540 55,331C55,124 165,-8 324,-12l-33,-62C330,-84 358,-97 358,-127C358,-155 320,-170 265,-178l7,-30C336,-200 397,-175 397,-123C397,-83 370,-65 337,-54l22,43C430,-3 482,31 527,82z"/>
<glyph unicode="&#x106;" horiz-adv-x="564" d="M55,331C55,121 168,-12 331,-12C416,-12 476,24 527,82l-28,29C451,57 401,30 333,30C191,30 103,148 103,331C103,514 192,629 337,629C397,629 445,602 480,562l28,30C473,633 413,671 337,671C169,671 55,540 55,331 z M436,815l-58,0l-92,-106l40,0z"/>
<glyph unicode="&#x108;" horiz-adv-x="564" d="M55,331C55,121 168,-12 331,-12C416,-12 476,24 527,82l-28,29C451,57 401,30 333,30C191,30 103,148 103,331C103,514 192,629 337,629C397,629 445,602 480,562l28,30C473,633 413,671 337,671C169,671 55,540 55,331 z M246,709l75,72l4,0l75,-72l40,0l-96,106l-42,0l-96,-106z"/>
<glyph unicode="&#x10C;" horiz-adv-x="564" d="M55,331C55,121 168,-12 331,-12C416,-12 476,24 527,82l-28,29C451,57 401,30 333,30C191,30 103,148 103,331C103,514 192,629 337,629C397,629 445,602 480,562l28,30C473,633 413,671 337,671C169,671 55,540 55,331 z M400,815l-75,-72l-4,0l-75,72l-40,0l96,-106l42,0l96,106z"/>
<glyph unicode="&#x10A;" horiz-adv-x="564" d="M55,331C55,121 168,-12 331,-12C416,-12 476,24 527,82l-28,29C451,57 401,30 333,30C191,30 103,148 103,331C103,514 192,629 337,629C397,629 445,602 480,562l28,30C473,633 413,671 337,671C169,671 55,540 55,331 z M323,721C345,721 363,737 363,762C363,785 345,801 323,801C301,801 283,785 283,762C283,737 301,721 323,721z"/>
<glyph unicode="&#x10E;" horiz-adv-x="604" d="M97,0l154,0C453,0 549,132 549,332C549,531 453,659 250,659l-153,0 z M143,39l0,581l102,0C424,620 501,503 501,332C501,160 424,39 245,39 z M379,815l-75,-72l-4,0l-75,72l-40,0l96,-106l42,0l96,106z"/>
<glyph unicode="&#x1E0C;" horiz-adv-x="604" d="M97,0l154,0C453,0 549,132 549,332C549,531 453,659 250,659l-153,0 z M143,39l0,581l102,0C424,620 501,503 501,332C501,160 424,39 245,39 z M300,-194C321,-194 338,-178 338,-153C338,-130 321,-114 300,-114C278,-114 262,-130 262,-153C262,-178 278,-194 300,-194z"/>
<glyph unicode="&#x1E0E;" horiz-adv-x="604" d="M97,0l154,0C453,0 549,132 549,332C549,531 453,659 250,659l-153,0 z M143,39l0,581l102,0C424,620 501,503 501,332C501,160 424,39 245,39 z M413,-124l-228,0l0,-36l228,0z"/>
<glyph unicode="&#x110;" horiz-adv-x="625" d="M164,39l0,293l163,0l0,33l-163,0l0,255l102,0C444,620 522,503 522,332C522,160 444,39 266,39 z M118,659l0,-294l-81,-2l0,-31l81,0l0,-332l153,0C474,0 570,132 570,332C570,531 474,659 270,659z"/>
<glyph unicode="&#xC8;" horiz-adv-x="515" d="M97,0l371,0l0,40l-325,0l0,290l264,0l0,40l-264,0l0,249l315,0l0,40l-361,0 z M278,709l41,0l-92,106l-58,0z"/>
<glyph unicode="&#xC9;" horiz-adv-x="515" d="M97,0l371,0l0,40l-325,0l0,290l264,0l0,40l-264,0l0,249l315,0l0,40l-361,0 z M395,815l-58,0l-92,-106l40,0z"/>
<glyph unicode="&#xCA;" horiz-adv-x="515" d="M97,0l371,0l0,40l-325,0l0,290l264,0l0,40l-264,0l0,249l315,0l0,40l-361,0 z M205,709l75,72l4,0l75,-72l40,0l-96,106l-42,0l-96,-106z"/>
<glyph unicode="&#x11A;" horiz-adv-x="515" d="M97,0l371,0l0,40l-325,0l0,290l264,0l0,40l-264,0l0,249l315,0l0,40l-361,0 z M359,815l-75,-72l-4,0l-75,72l-40,0l96,-106l42,0l96,106z"/>
<glyph unicode="&#xCB;" horiz-adv-x="515" d="M97,0l371,0l0,40l-325,0l0,290l264,0l0,40l-264,0l0,249l315,0l0,40l-361,0 z M203,725C224,725 240,739 240,761C240,784 224,798 203,798C182,798 166,784 166,761C166,739 182,725 203,725 z M361,725C382,725 397,739 397,761C397,784 382,798 361,798C340,798 324,784 324,761C324,739 340,725 361,725z"/>
<glyph unicode="&#x112;" horiz-adv-x="515" d="M97,0l371,0l0,40l-325,0l0,290l264,0l0,40l-264,0l0,249l315,0l0,40l-361,0 z M168,734l228,0l0,36l-228,0z"/>
<glyph unicode="&#x114;" horiz-adv-x="515" d="M97,0l371,0l0,40l-325,0l0,290l264,0l0,40l-264,0l0,249l315,0l0,40l-361,0 z M282,711C358,711 391,769 397,815l-33,0C358,780 333,743 282,743C230,743 206,780 200,815l-33,0C173,769 206,711 282,711z"/>
<glyph unicode="&#x116;" horiz-adv-x="515" d="M97,0l371,0l0,40l-325,0l0,290l264,0l0,40l-264,0l0,249l315,0l0,40l-361,0 z M282,721C304,721 322,737 322,762C322,785 304,801 282,801C260,801 242,785 242,762C242,737 260,721 282,721z"/>
<glyph unicode="&#x1EB8;" horiz-adv-x="515" d="M97,0l371,0l0,40l-325,0l0,290l264,0l0,40l-264,0l0,249l315,0l0,40l-361,0 z M297,-194C318,-194 335,-178 335,-153C335,-130 318,-114 297,-114C275,-114 259,-130 259,-153C259,-178 275,-194 297,-194z"/>
<glyph unicode="&#x1EBA;" horiz-adv-x="515" d="M97,0l371,0l0,40l-325,0l0,290l264,0l0,40l-264,0l0,249l315,0l0,40l-361,0 z M258,702C306,715 353,737 353,789C353,839 298,861 232,863l-4,-32C282,829 313,814 313,783C313,755 286,740 250,729z"/>
<glyph unicode="&#x1EBC;" horiz-adv-x="515" d="M97,0l371,0l0,40l-325,0l0,290l264,0l0,40l-264,0l0,249l315,0l0,40l-361,0 z M341,716C386,716 409,764 412,808l-29,0C379,774 363,752 342,752C301,752 276,808 223,808C178,808 155,761 152,716l29,0C185,750 201,773 222,773C263,773 288,716 341,716z"/>
<glyph unicode="&#x1EBE;" horiz-adv-x="515" d="M97,0l371,0l0,40l-325,0l0,290l264,0l0,40l-264,0l0,249l315,0l0,40l-361,0 z M361,770l33,0l85,106l-47,0 z M171,709l39,0l70,66l4,0l69,-66l40,0l-91,100l-40,0z"/>
<glyph unicode="&#x1EC0;" horiz-adv-x="515" d="M97,0l371,0l0,40l-325,0l0,290l264,0l0,40l-264,0l0,249l315,0l0,40l-361,0 z M362,876l-47,0l86,-106l33,0 z M171,709l39,0l70,66l4,0l69,-66l40,0l-91,100l-40,0z"/>
<glyph unicode="&#x1EC2;" horiz-adv-x="515" d="M97,0l371,0l0,40l-325,0l0,290l264,0l0,40l-264,0l0,249l315,0l0,40l-361,0 z M384,757C422,766 463,785 463,831C463,878 416,896 357,899l-5,-31C400,866 425,856 425,826C425,803 402,791 374,784 z M171,709l39,0l70,66l4,0l69,-66l40,0l-91,100l-40,0z"/>
<glyph unicode="&#x1EC4;" horiz-adv-x="515" d="M97,0l371,0l0,40l-325,0l0,290l264,0l0,40l-264,0l0,249l315,0l0,40l-361,0 z M171,709l39,0l70,66l4,0l69,-66l40,0l-91,100l-40,0 z M189,843C193,873 209,892 230,892C265,892 285,843 333,843C379,843 401,886 404,924l-29,0C370,894 355,875 333,875C298,875 279,924 231,924C184,924 163,881 160,843z"/>
<glyph unicode="&#x1EC6;" horiz-adv-x="515" d="M97,0l371,0l0,40l-325,0l0,290l264,0l0,40l-264,0l0,249l315,0l0,40l-361,0 z M205,709l75,72l4,0l75,-72l40,0l-96,106l-42,0l-96,-106 z M297,-194C318,-194 335,-178 335,-153C335,-130 318,-114 297,-114C275,-114 259,-130 259,-153C259,-178 275,-194 297,-194z"/>
<glyph unicode="&#x118;" horiz-adv-x="515" d="M97,0l307,0C365,-25 331,-71 331,-123C331,-178 369,-205 415,-205C437,-205 465,-194 481,-181l-17,27C451,-164 439,-168 421,-168C396,-168 371,-151 371,-116C371,-58 420,-9 465,0l3,0l0,40l-325,0l0,290l264,0l0,40l-264,0l0,249l315,0l0,40l-361,0z"/>
<glyph unicode="&#x11C;" horiz-adv-x="605" d="M55,331C55,121 168,-12 337,-12C424,-12 492,19 533,63l0,261l-202,0l0,-39l158,0l0,-205C457,48 401,30 341,30C191,30 103,148 103,331C103,514 196,629 347,629C419,629 465,599 499,562l27,30C491,629 435,671 347,671C172,671 55,540 55,331 z M269,709l75,72l4,0l75,-72l40,0l-96,106l-42,0l-96,-106z"/>
<glyph unicode="&#x11E;" horiz-adv-x="605" d="M55,331C55,121 168,-12 337,-12C424,-12 492,19 533,63l0,261l-202,0l0,-39l158,0l0,-205C457,48 401,30 341,30C191,30 103,148 103,331C103,514 196,629 347,629C419,629 465,599 499,562l27,30C491,629 435,671 347,671C172,671 55,540 55,331 z M346,711C422,711 455,769 461,815l-33,0C422,780 398,743 346,743C294,743 270,780 264,815l-33,0C237,769 270,711 346,711z"/>
<glyph unicode="&#x120;" horiz-adv-x="605" d="M55,331C55,121 168,-12 337,-12C424,-12 492,19 533,63l0,261l-202,0l0,-39l158,0l0,-205C457,48 401,30 341,30C191,30 103,148 103,331C103,514 196,629 347,629C419,629 465,599 499,562l27,30C491,629 435,671 347,671C172,671 55,540 55,331 z M346,721C368,721 386,737 386,762C386,785 368,801 346,801C324,801 306,785 306,762C306,737 324,721 346,721z"/>
<glyph unicode="&#x122;" horiz-adv-x="605" d="M55,331C55,121 168,-12 337,-12C424,-12 492,19 533,63l0,261l-202,0l0,-39l158,0l0,-205C457,48 401,30 341,30C191,30 103,148 103,331C103,514 196,629 347,629C419,629 465,599 499,562l27,30C491,629 435,671 347,671C172,671 55,540 55,331 z M315,-51l-13,-29C331,-86 359,-98 359,-129C359,-156 321,-171 266,-179l7,-30C337,-201 398,-176 398,-124C398,-83 370,-62 315,-51z"/>
<glyph unicode="&#x1E6;" horiz-adv-x="605" d="M55,331C55,121 168,-12 337,-12C424,-12 492,19 533,63l0,261l-202,0l0,-39l158,0l0,-205C457,48 401,30 341,30C191,30 103,148 103,331C103,514 196,629 347,629C419,629 465,599 499,562l27,30C491,629 435,671 347,671C172,671 55,540 55,331 z M423,815l-75,-72l-4,0l-75,72l-40,0l96,-106l42,0l96,106z"/>
<glyph unicode="&#x1E20;" horiz-adv-x="605" d="M55,331C55,121 168,-12 337,-12C424,-12 492,19 533,63l0,261l-202,0l0,-39l158,0l0,-205C457,48 401,30 341,30C191,30 103,148 103,331C103,514 196,629 347,629C419,629 465,599 499,562l27,30C491,629 435,671 347,671C172,671 55,540 55,331 z M232,734l228,0l0,36l-228,0z"/>
<glyph unicode="&#xE000;" horiz-adv-x="605" d="M55,331C55,121 168,-12 337,-12C424,-12 492,19 533,63l0,261l-202,0l0,-39l158,0l0,-205C457,48 401,30 341,30C191,30 103,148 103,331C103,514 196,629 347,629C419,629 465,599 499,562l27,30C491,629 435,671 347,671C172,671 55,540 55,331 z M405,716C450,716 473,764 476,808l-29,0C443,774 427,752 406,752C365,752 340,808 287,808C242,808 219,761 216,716l29,0C249,750 265,773 286,773C327,773 352,716 405,716z"/>
<glyph unicode="&#x124;" horiz-adv-x="639" d="M97,0l46,0l0,330l353,0l0,-330l46,0l0,659l-46,0l0,-289l-353,0l0,289l-46,0 z M242,709l75,72l4,0l75,-72l40,0l-96,106l-42,0l-96,-106z"/>
<glyph unicode="&#x1E24;" horiz-adv-x="639" d="M97,0l46,0l0,330l353,0l0,-330l46,0l0,659l-46,0l0,-289l-353,0l0,289l-46,0 z M319,-194C341,-194 357,-178 357,-153C357,-130 341,-114 319,-114C298,-114 281,-130 281,-153C281,-178 298,-194 319,-194z"/>
<glyph unicode="&#x1E2A;" horiz-adv-x="639" d="M97,0l46,0l0,330l353,0l0,-330l46,0l0,659l-46,0l0,-289l-353,0l0,289l-46,0 z M319,-203C401,-203 433,-135 438,-84l-33,0C399,-127 373,-170 319,-170C266,-170 239,-127 233,-84l-33,0C206,-135 238,-203 319,-203z"/>
<glyph unicode="&#x126;" horiz-adv-x="672" d="M516,370l-353,0l0,125l353,0 z M635,528l-73,0l0,131l-46,0l0,-131l-353,0l0,131l-46,0l0,-131l-81,-4l0,-29l81,0l0,-495l46,0l0,330l353,0l0,-330l46,0l0,495l73,0z"/>
<glyph unicode="&#xCC;" horiz-adv-x="240" d="M97,0l46,0l0,659l-46,0 z M117,709l40,0l-92,106l-58,0z"/>
<glyph unicode="&#xCD;" horiz-adv-x="240" d="M97,0l46,0l0,659l-46,0 z M233,815l-58,0l-92,-106l41,0z"/>
<glyph unicode="&#xCE;" horiz-adv-x="240" d="M97,0l46,0l0,659l-46,0 z M43,709l75,72l4,0l75,-72l40,0l-96,106l-42,0l-96,-106z"/>
<glyph unicode="&#x128;" horiz-adv-x="240" d="M97,0l46,0l0,659l-46,0 z M179,716C224,716 247,764 250,808l-29,0C217,774 201,752 180,752C139,752 114,808 62,808C17,808 -6,761 -9,716l28,0C23,750 39,773 61,773C101,773 127,716 179,716z"/>
<glyph unicode="&#xCF;" horiz-adv-x="240" d="M97,0l46,0l0,659l-46,0 z M41,725C62,725 78,739 78,761C78,784 62,798 41,798C21,798 5,784 5,761C5,739 21,725 41,725 z M199,725C220,725 236,739 236,761C236,784 220,798 199,798C178,798 162,784 162,761C162,739 178,725 199,725z"/>
<glyph unicode="&#x12A;" horiz-adv-x="240" d="M97,0l46,0l0,659l-46,0 z M6,734l228,0l0,36l-228,0z"/>
<glyph unicode="&#x130;" horiz-adv-x="240" d="M97,0l46,0l0,659l-46,0 z M120,721C142,721 160,737 160,762C160,785 142,801 120,801C98,801 80,785 80,762C80,737 98,721 120,721z"/>
<glyph unicode="&#x1CF;" horiz-adv-x="240" d="M97,0l46,0l0,659l-46,0 z M197,815l-75,-72l-4,0l-75,72l-40,0l96,-106l42,0l96,106z"/>
<glyph unicode="&#x1EC8;" horiz-adv-x="240" d="M97,0l46,0l0,659l-46,0 z M97,702C144,715 191,737 191,789C191,839 136,861 70,863l-4,-32C121,829 152,814 152,783C152,755 125,740 88,729z"/>
<glyph unicode="&#x1ECA;" horiz-adv-x="240" d="M97,0l46,0l0,659l-46,0 z M121,-194C143,-194 159,-178 159,-153C159,-130 143,-114 121,-114C100,-114 83,-130 83,-153C83,-178 100,-194 121,-194z"/>
<glyph unicode="&#x12E;" horiz-adv-x="240" d="M97,0l9,0C72,-34 44,-69 44,-123C44,-178 82,-205 128,-205C150,-205 178,-194 193,-181l-16,27C164,-164 151,-168 134,-168C109,-168 83,-151 83,-116C83,-72 109,-38 143,0l0,659l-46,0z"/>
<glyph unicode="&#x134;" horiz-adv-x="462" d="M41,85C74,23 130,-12 203,-12C323,-12 367,73 367,179l0,480l-46,0l0,-475C321,77 283,30 203,30C148,30 108,52 76,108 z M264,709l75,72l4,0l75,-72l40,0l-96,106l-42,0l-96,-106z"/>
<glyph unicode="&#x136;" horiz-adv-x="558" d="M97,0l46,0l0,227l134,153l218,-380l53,0l-239,415l210,244l-55,0l-319,-366l-2,0l0,366l-46,0 z M297,-51l-12,-29C313,-86 341,-98 341,-129C341,-156 303,-171 248,-179l7,-30C319,-201 380,-176 380,-124C380,-83 352,-62 297,-51z"/>
<glyph unicode="&#x139;" horiz-adv-x="467" d="M97,0l350,0l0,40l-304,0l0,619l-46,0 z M235,815l-57,0l-93,-106l41,0z"/>
<glyph unicode="&#x13D;" horiz-adv-x="467" d="M97,0l350,0l0,40l-304,0l0,619l-46,0 z M349,517l8,156l1,50l-38,0l2,-206z"/>
<glyph unicode="&#x13B;" horiz-adv-x="467" d="M97,0l350,0l0,40l-304,0l0,619l-46,0 z M261,-51l-12,-29C277,-86 305,-98 305,-129C305,-156 267,-171 212,-179l7,-30C283,-201 344,-176 344,-124C344,-83 316,-62 261,-51z"/>
<glyph unicode="&#x13F;" horiz-adv-x="467" d="M97,0l350,0l0,40l-304,0l0,619l-46,0 z M315,323C315,295 335,278 357,278C379,278 400,295 400,323C400,352 379,369 357,369C335,369 315,352 315,323z"/>
<glyph unicode="&#x1E36;" horiz-adv-x="467" d="M97,0l350,0l0,40l-304,0l0,619l-46,0 z M287,-194C308,-194 325,-178 325,-153C325,-130 308,-114 287,-114C265,-114 248,-130 248,-153C248,-178 265,-194 287,-194z"/>
<glyph unicode="&#x1E38;" horiz-adv-x="467" d="M97,0l350,0l0,40l-304,0l0,619l-46,0 z M9,734l227,0l0,36l-227,0 z M287,-194C308,-194 325,-178 325,-153C325,-130 308,-114 287,-114C265,-114 248,-130 248,-153C248,-178 265,-194 287,-194z"/>
<glyph unicode="&#x1E3A;" horiz-adv-x="467" d="M97,0l350,0l0,40l-304,0l0,619l-46,0 z M400,-124l-229,0l0,-36l229,0z"/>
<glyph unicode="&#x141;" horiz-adv-x="468" d="M148,40l0,239l193,100l0,40l-193,-100l0,340l-46,0l0,-361l-88,-48l0,-40l88,47l0,-257l349,0l0,40z"/>
<glyph unicode="&#x1E42;" horiz-adv-x="706" d="M97,0l43,0l0,433C140,487 137,556 134,611l4,0l52,-145l142,-394l41,0l141,394l52,145l4,0C567,556 564,487 564,433l0,-433l45,0l0,659l-65,0l-138,-387l-50,-146l-4,0l-52,146l-138,387l-65,0 z M354,-194C376,-194 392,-178 392,-153C392,-130 376,-114 354,-114C332,-114 316,-130 316,-153C316,-178 332,-194 354,-194z"/>
<glyph unicode="&#x143;" horiz-adv-x="636" d="M97,0l44,0l0,409C141,473 137,533 135,596l4,0l74,-131l278,-465l48,0l0,659l-44,0l0,-404C495,191 499,127 501,63l-4,0l-74,131l-278,465l-48,0 z M435,815l-57,0l-93,-106l41,0z"/>
<glyph unicode="&#x147;" horiz-adv-x="636" d="M97,0l44,0l0,409C141,473 137,533 135,596l4,0l74,-131l278,-465l48,0l0,659l-44,0l0,-404C495,191 499,127 501,63l-4,0l-74,131l-278,465l-48,0 z M399,815l-74,-72l-4,0l-75,72l-41,0l96,-106l43,0l96,106z"/>
<glyph unicode="&#xD1;" horiz-adv-x="636" d="M97,0l44,0l0,409C141,473 137,533 135,596l4,0l74,-131l278,-465l48,0l0,659l-44,0l0,-404C495,191 499,127 501,63l-4,0l-74,131l-278,465l-48,0 z M381,716C426,716 449,764 452,808l-28,0C419,774 404,752 382,752C342,752 316,808 264,808C219,808 196,761 193,716l28,0C226,750 242,773 263,773C304,773 329,716 381,716z"/>
<glyph unicode="&#x145;" horiz-adv-x="636" d="M97,0l44,0l0,409C141,473 137,533 135,596l4,0l74,-131l278,-465l48,0l0,659l-44,0l0,-404C495,191 499,127 501,63l-4,0l-74,131l-278,465l-48,0 z M293,-51l-12,-29C309,-86 337,-98 337,-129C337,-156 299,-171 244,-179l7,-30C315,-201 376,-176 376,-124C376,-83 348,-62 293,-51z"/>
<glyph unicode="&#x1E44;" horiz-adv-x="636" d="M97,0l44,0l0,409C141,473 137,533 135,596l4,0l74,-131l278,-465l48,0l0,659l-44,0l0,-404C495,191 499,127 501,63l-4,0l-74,131l-278,465l-48,0 z M323,721C344,721 363,737 363,762C363,785 344,801 323,801C301,801 282,785 282,762C282,737 301,721 323,721z"/>
<glyph unicode="&#x1E46;" horiz-adv-x="636" d="M97,0l44,0l0,409C141,473 137,533 135,596l4,0l74,-131l278,-465l48,0l0,659l-44,0l0,-404C495,191 499,127 501,63l-4,0l-74,131l-278,465l-48,0 z M319,-194C340,-194 357,-178 357,-153C357,-130 340,-114 319,-114C297,-114 280,-130 280,-153C280,-178 297,-194 319,-194z"/>
<glyph unicode="&#x1E48;" horiz-adv-x="636" d="M97,0l44,0l0,409C141,473 137,533 135,596l4,0l74,-131l278,-465l48,0l0,659l-44,0l0,-404C495,191 499,127 501,63l-4,0l-74,131l-278,465l-48,0 z M432,-124l-229,0l0,-36l229,0z"/>
<glyph unicode="&#xD2;" horiz-adv-x="652" d="M326,-12C485,-12 598,123 598,332C598,540 485,671 326,671C168,671 55,540 55,332C55,123 168,-12 326,-12 z M326,30C192,30 103,149 103,332C103,514 192,629 326,629C460,629 549,514 549,332C549,149 460,30 326,30 z M323,709l40,0l-92,106l-58,0z"/>
<glyph unicode="&#xD3;" horiz-adv-x="652" d="M326,-12C485,-12 598,123 598,332C598,540 485,671 326,671C168,671 55,540 55,332C55,123 168,-12 326,-12 z M326,30C192,30 103,149 103,332C103,514 192,629 326,629C460,629 549,514 549,332C549,149 460,30 326,30 z M439,815l-58,0l-92,-106l41,0z"/>
<glyph unicode="&#xD4;" horiz-adv-x="652" d="M326,-12C485,-12 598,123 598,332C598,540 485,671 326,671C168,671 55,540 55,332C55,123 168,-12 326,-12 z M326,30C192,30 103,149 103,332C103,514 192,629 326,629C460,629 549,514 549,332C549,149 460,30 326,30 z M249,709l75,72l4,0l75,-72l40,0l-96,106l-42,0l-96,-106z"/>
<glyph unicode="&#xD5;" horiz-adv-x="652" d="M326,-12C485,-12 598,123 598,332C598,540 485,671 326,671C168,671 55,540 55,332C55,123 168,-12 326,-12 z M326,30C192,30 103,149 103,332C103,514 192,629 326,629C460,629 549,514 549,332C549,149 460,30 326,30 z M385,716C430,716 453,764 456,808l-29,0C423,774 407,752 386,752C345,752 320,808 268,808C223,808 200,761 197,716l28,0C229,750 245,773 267,773C307,773 333,716 385,716z"/>
<glyph unicode="&#xD6;" horiz-adv-x="652" d="M326,-12C485,-12 598,123 598,332C598,540 485,671 326,671C168,671 55,540 55,332C55,123 168,-12 326,-12 z M326,30C192,30 103,149 103,332C103,514 192,629 326,629C460,629 549,514 549,332C549,149 460,30 326,30 z M247,725C268,725 284,739 284,761C284,784 268,798 247,798C227,798 211,784 211,761C211,739 227,725 247,725 z M405,725C426,725 442,739 442,761C442,784 426,798 405,798C384,798 368,784 368,761C368,739 384,725 405,725z"/>
<glyph unicode="&#x14C;" horiz-adv-x="652" d="M326,-12C485,-12 598,123 598,332C598,540 485,671 326,671C168,671 55,540 55,332C55,123 168,-12 326,-12 z M326,30C192,30 103,149 103,332C103,514 192,629 326,629C460,629 549,514 549,332C549,149 460,30 326,30 z M212,734l228,0l0,36l-228,0z"/>
<glyph unicode="&#x150;" horiz-adv-x="652" d="M326,-12C485,-12 598,123 598,332C598,540 485,671 326,671C168,671 55,540 55,332C55,123 168,-12 326,-12 z M326,30C192,30 103,149 103,332C103,514 192,629 326,629C460,629 549,514 549,332C549,149 460,30 326,30 z M271,709l79,106l-49,0l-67,-106 z M379,709l36,0l80,106l-49,0z"/>
<glyph unicode="&#x1D1;" horiz-adv-x="652" d="M326,-12C485,-12 598,123 598,332C598,540 485,671 326,671C168,671 55,540 55,332C55,123 168,-12 326,-12 z M326,30C192,30 103,149 103,332C103,514 192,629 326,629C460,629 549,514 549,332C549,149 460,30 326,30 z M403,815l-75,-72l-4,0l-75,72l-40,0l96,-106l42,0l96,106z"/>
<glyph unicode="&#x1ECC;" horiz-adv-x="652" d="M326,-12C485,-12 598,123 598,332C598,540 485,671 326,671C168,671 55,540 55,332C55,123 168,-12 326,-12 z M326,30C192,30 103,149 103,332C103,514 192,629 326,629C460,629 549,514 549,332C549,149 460,30 326,30 z M326,-194C348,-194 364,-178 364,-153C364,-130 348,-114 326,-114C305,-114 288,-130 288,-153C288,-178 305,-194 326,-194z"/>
<glyph unicode="&#x1ECE;" horiz-adv-x="652" d="M326,-12C485,-12 598,123 598,332C598,540 485,671 326,671C168,671 55,540 55,332C55,123 168,-12 326,-12 z M326,30C192,30 103,149 103,332C103,514 192,629 326,629C460,629 549,514 549,332C549,149 460,30 326,30 z M303,702C350,715 397,737 397,789C397,839 342,861 276,863l-4,-32C327,829 358,814 358,783C358,755 331,740 294,729z"/>
<glyph unicode="&#x1ED0;" horiz-adv-x="652" d="M326,-12C485,-12 598,123 598,332C598,540 485,671 326,671C168,671 55,540 55,332C55,123 168,-12 326,-12 z M326,30C192,30 103,149 103,332C103,514 192,629 326,629C460,629 549,514 549,332C549,149 460,30 326,30 z M405,770l33,0l86,106l-47,0 z M216,709l39,0l69,66l4,0l70,-66l39,0l-91,100l-40,0z"/>
<glyph unicode="&#x1ED2;" horiz-adv-x="652" d="M326,-12C485,-12 598,123 598,332C598,540 485,671 326,671C168,671 55,540 55,332C55,123 168,-12 326,-12 z M326,30C192,30 103,149 103,332C103,514 192,629 326,629C460,629 549,514 549,332C549,149 460,30 326,30 z M407,876l-48,0l86,-106l33,0 z M216,709l39,0l69,66l4,0l70,-66l39,0l-91,100l-40,0z"/>
<glyph unicode="&#x1ED4;" horiz-adv-x="652" d="M326,-12C485,-12 598,123 598,332C598,540 485,671 326,671C168,671 55,540 55,332C55,123 168,-12 326,-12 z M326,30C192,30 103,149 103,332C103,514 192,629 326,629C460,629 549,514 549,332C549,149 460,30 326,30 z M428,757C466,766 507,785 507,831C507,878 461,896 402,899l-6,-31C445,866 469,856 469,826C469,803 447,791 418,784 z M216,709l39,0l69,66l4,0l70,-66l39,0l-91,100l-40,0z"/>
<glyph unicode="&#x1ED6;" horiz-adv-x="652" d="M326,-12C485,-12 598,123 598,332C598,540 485,671 326,671C168,671 55,540 55,332C55,123 168,-12 326,-12 z M326,30C192,30 103,149 103,332C103,514 192,629 326,629C460,629 549,514 549,332C549,149 460,30 326,30 z M216,709l39,0l69,66l4,0l70,-66l39,0l-91,100l-40,0 z M233,843C238,873 253,892 275,892C310,892 329,843 377,843C424,843 445,886 448,924l-29,0C415,894 399,875 378,875C343,875 323,924 275,924C229,924 207,881 204,843z"/>
<glyph unicode="&#x1ED8;" horiz-adv-x="652" d="M326,-12C485,-12 598,123 598,332C598,540 485,671 326,671C168,671 55,540 55,332C55,123 168,-12 326,-12 z M326,30C192,30 103,149 103,332C103,514 192,629 326,629C460,629 549,514 549,332C549,149 460,30 326,30 z M249,709l75,72l4,0l75,-72l40,0l-96,106l-42,0l-96,-106 z M326,-194C348,-194 364,-178 364,-153C364,-130 348,-114 326,-114C305,-114 288,-130 288,-153C288,-178 305,-194 326,-194z"/>
<glyph unicode="&#xD8;" horiz-adv-x="652" d="M501,535C534,484 553,415 553,332C553,149 464,30 330,30C268,30 215,56 177,101 z M155,132C124,183 107,251 107,332C107,514 196,629 330,629C390,629 440,606 478,565 z M595,660l-29,22l-61,-81C459,646 399,671 330,671C171,671 58,540 58,332C58,234 83,152 126,93l-70,-94l28,-22l65,87C196,15 258,-12 330,-12C488,-12 601,123 601,332C601,432 575,515 530,573z"/>
<glyph unicode="&#x152;" horiz-adv-x="833" d="M55,332C55,132 160,0 367,0l419,0l0,40l-305,0l0,290l245,0l0,40l-245,0l0,249l295,0l0,40l-408,0C160,659 55,531 55,332 z M103,332C103,504 188,620 372,620l63,0l0,-581l-63,0C188,39 103,160 103,332z"/>
<glyph unicode="&#x1A0;" horiz-adv-x="652" d="M330,30C196,30 107,149 107,332C107,514 196,629 330,629C464,629 553,514 553,332C553,149 464,30 330,30 z M535,747C544,733 549,721 549,708C549,670 519,648 454,639C418,660 376,671 330,671C171,671 58,540 58,332C58,123 171,-12 330,-12C488,-12 601,123 601,332C601,458 559,557 491,614C552,628 589,658 589,711C589,731 582,748 570,766z"/>
<glyph unicode="&#x1EDA;" horiz-adv-x="652" d="M439,815l-58,0l-92,-106l41,0 z M330,30C196,30 107,149 107,332C107,514 196,629 330,629C464,629 553,514 553,332C553,149 464,30 330,30 z M535,747C544,733 549,721 549,708C549,670 519,648 454,639C418,660 376,671 330,671C171,671 58,540 58,332C58,123 171,-12 330,-12C488,-12 601,123 601,332C601,458 559,557 491,614C552,628 589,658 589,711C589,731 582,748 570,766z"/>
<glyph unicode="&#x1EDC;" horiz-adv-x="652" d="M363,709l-92,106l-58,0l110,-106 z M330,30C196,30 107,149 107,332C107,514 196,629 330,629C464,629 553,514 553,332C553,149 464,30 330,30 z M535,747C544,733 549,721 549,708C549,670 519,648 454,639C418,660 376,671 330,671C171,671 58,540 58,332C58,123 171,-12 330,-12C488,-12 601,123 601,332C601,458 559,557 491,614C552,628 589,658 589,711C589,731 582,748 570,766z"/>
<glyph unicode="&#x1EDE;" horiz-adv-x="652" d="M303,702C350,715 397,737 397,789C397,839 342,861 276,863l-4,-32C327,829 358,814 358,783C358,755 331,740 294,729 z M330,30C196,30 107,149 107,332C107,514 196,629 330,629C464,629 553,514 553,332C553,149 464,30 330,30 z M535,747C544,733 549,721 549,708C549,670 519,648 454,639C418,660 376,671 330,671C171,671 58,540 58,332C58,123 171,-12 330,-12C488,-12 601,123 601,332C601,458 559,557 491,614C552,628 589,658 589,711C589,731 582,748 570,766z"/>
<glyph unicode="&#x1EE0;" horiz-adv-x="652" d="M427,808C423,774 407,752 386,752C345,752 320,808 268,808C223,808 200,761 197,716l28,0C229,750 245,773 267,773C307,773 333,716 385,716C430,716 453,764 456,808 z M330,30C196,30 107,149 107,332C107,514 196,629 330,629C464,629 553,514 553,332C553,149 464,30 330,30 z M535,747C544,733 549,721 549,708C549,670 519,648 454,639C418,660 376,671 330,671C171,671 58,540 58,332C58,123 171,-12 330,-12C488,-12 601,123 601,332C601,458 559,557 491,614C552,628 589,658 589,711C589,731 582,748 570,766z"/>
<glyph unicode="&#x1EE2;" horiz-adv-x="652" d="M326,-114C305,-114 288,-130 288,-153C288,-178 305,-194 326,-194C348,-194 364,-178 364,-153C364,-130 348,-114 326,-114 z M330,30C196,30 107,149 107,332C107,514 196,629 330,629C464,629 553,514 553,332C553,149 464,30 330,30 z M535,747C544,733 549,721 549,708C549,670 519,648 454,639C418,660 376,671 330,671C171,671 58,540 58,332C58,123 171,-12 330,-12C488,-12 601,123 601,332C601,458 559,557 491,614C552,628 589,658 589,711C589,731 582,748 570,766z"/>
<glyph unicode="&#x1EA;" horiz-adv-x="652" d="M273,-123C273,-178 311,-205 357,-205C379,-205 407,-194 423,-181l-17,27C393,-164 381,-168 363,-168C338,-168 313,-151 313,-116C313,-80 338,-33 395,-8C527,52 598,156 598,332C598,540 485,671 326,671C168,671 55,540 55,332C55,125 162,-12 334,-12C295,-43 273,-83 273,-123 z M326,30C192,30 103,149 103,332C103,514 192,629 326,629C460,629 549,514 549,332C549,149 460,30 326,30z"/>
<glyph unicode="&#x154;" horiz-adv-x="560" d="M397,815l-57,0l-93,-106l41,0 z M143,341l0,279l131,0C390,620 455,584 455,485C455,388 390,341 274,341 z M515,0l-182,306C437,319 502,380 502,485C502,611 417,659 286,659l-189,0l0,-659l46,0l0,303l140,0l179,-303z"/>
<glyph unicode="&#x158;" horiz-adv-x="560" d="M306,709l96,106l-40,0l-75,-72l-4,0l-75,72l-41,0l96,-106 z M143,341l0,279l131,0C390,620 455,584 455,485C455,388 390,341 274,341 z M515,0l-182,306C437,319 502,380 502,485C502,611 417,659 286,659l-189,0l0,-659l46,0l0,303l140,0l179,-303z"/>
<glyph unicode="&#x156;" horiz-adv-x="560" d="M261,-80C290,-86 317,-98 317,-129C317,-156 280,-171 225,-179l7,-30C296,-201 357,-176 357,-124C357,-83 328,-62 274,-51 z M143,341l0,279l131,0C390,620 455,584 455,485C455,388 390,341 274,341 z M333,306C437,319 502,380 502,485C502,611 417,659 286,659l-189,0l0,-659l46,0l0,303l140,0l179,-303l53,0z"/>
<glyph unicode="&#x1E5A;" horiz-adv-x="560" d="M299,-114C277,-114 261,-130 261,-153C261,-178 277,-194 299,-194C321,-194 337,-178 337,-153C337,-130 321,-114 299,-114 z M143,341l0,279l131,0C390,620 455,584 455,485C455,388 390,341 274,341 z M333,306C437,319 502,380 502,485C502,611 417,659 286,659l-189,0l0,-659l46,0l0,303l140,0l179,-303l53,0z"/>
<glyph unicode="&#x1E5C;" horiz-adv-x="560" d="M398,770l-227,0l0,-36l227,0 z M299,-114C277,-114 261,-130 261,-153C261,-178 277,-194 299,-194C321,-194 337,-178 337,-153C337,-130 321,-114 299,-114 z M143,341l0,279l131,0C390,620 455,584 455,485C455,388 390,341 274,341 z M333,306C437,319 502,380 502,485C502,611 417,659 286,659l-189,0l0,-659l46,0l0,303l140,0l179,-303l53,0z"/>
<glyph unicode="&#x1E5E;" horiz-adv-x="560" d="M184,-160l228,0l0,36l-228,0 z M143,341l0,279l131,0C390,620 455,584 455,485C455,388 390,341 274,341 z M333,306C437,319 502,380 502,485C502,611 417,659 286,659l-189,0l0,-659l46,0l0,303l140,0l179,-303l53,0z"/>
<glyph unicode="&#x15A;" horiz-adv-x="521" d="M46,87C98,29 173,-12 269,-12C397,-12 480,64 480,165C480,266 415,307 341,340l-100,44C193,406 127,435 127,511C127,583 186,629 273,629C339,629 391,602 430,561l26,31C416,635 352,671 273,671C163,671 81,604 81,509C81,411 157,370 215,345l100,-45C380,271 433,244 433,162C433,84 370,30 269,30C193,30 124,65 76,119 z M385,815l-58,0l-93,-106l41,0z"/>
<glyph unicode="&#x15C;" horiz-adv-x="521" d="M46,87C98,29 173,-12 269,-12C397,-12 480,64 480,165C480,266 415,307 341,340l-100,44C193,406 127,435 127,511C127,583 186,629 273,629C339,629 391,602 430,561l26,31C416,635 352,671 273,671C163,671 81,604 81,509C81,411 157,370 215,345l100,-45C380,271 433,244 433,162C433,84 370,30 269,30C193,30 124,65 76,119 z M195,709l75,72l4,0l75,-72l40,0l-96,106l-42,0l-96,-106z"/>
<glyph unicode="&#x160;" horiz-adv-x="521" d="M46,87C98,29 173,-12 269,-12C397,-12 480,64 480,165C480,266 415,307 341,340l-100,44C193,406 127,435 127,511C127,583 186,629 273,629C339,629 391,602 430,561l26,31C416,635 352,671 273,671C163,671 81,604 81,509C81,411 157,370 215,345l100,-45C380,271 433,244 433,162C433,84 370,30 269,30C193,30 124,65 76,119 z M349,815l-75,-72l-4,0l-75,72l-40,0l96,-106l42,0l96,106z"/>
<glyph unicode="&#x15E;" horiz-adv-x="521" d="M241,384C193,406 127,435 127,511C127,583 186,629 273,629C339,629 391,602 430,561l26,31C416,635 352,671 273,671C163,671 81,604 81,509C81,411 157,370 215,345l100,-45C380,271 433,244 433,162C433,84 370,30 269,30C193,30 124,65 76,119l-30,-32C95,32 165,-7 253,-12l-33,-62C259,-84 287,-97 287,-127C287,-155 249,-170 194,-178l7,-30C265,-200 326,-175 326,-123C326,-83 299,-65 267,-54l21,43C405,-4 480,69 480,165C480,266 415,307 341,340z"/>
<glyph unicode="&#x218;" horiz-adv-x="521" d="M46,87C98,29 173,-12 269,-12C397,-12 480,64 480,165C480,266 415,307 341,340l-100,44C193,406 127,435 127,511C127,583 186,629 273,629C339,629 391,602 430,561l26,31C416,635 352,671 273,671C163,671 81,604 81,509C81,411 157,370 215,345l100,-45C380,271 433,244 433,162C433,84 370,30 269,30C193,30 124,65 76,119 z M243,-51l-12,-29C259,-86 287,-98 287,-129C287,-156 249,-171 194,-179l7,-30C265,-201 326,-176 326,-124C326,-83 298,-62 243,-51z"/>
<glyph unicode="&#x1E60;" horiz-adv-x="521" d="M46,87C98,29 173,-12 269,-12C397,-12 480,64 480,165C480,266 415,307 341,340l-100,44C193,406 127,435 127,511C127,583 186,629 273,629C339,629 391,602 430,561l26,31C416,635 352,671 273,671C163,671 81,604 81,509C81,411 157,370 215,345l100,-45C380,271 433,244 433,162C433,84 370,30 269,30C193,30 124,65 76,119 z M272,721C294,721 312,737 312,762C312,785 294,801 272,801C250,801 231,785 231,762C231,737 250,721 272,721z"/>
<glyph unicode="&#x1E62;" horiz-adv-x="521" d="M46,87C98,29 173,-12 269,-12C397,-12 480,64 480,165C480,266 415,307 341,340l-100,44C193,406 127,435 127,511C127,583 186,629 273,629C339,629 391,602 430,561l26,31C416,635 352,671 273,671C163,671 81,604 81,509C81,411 157,370 215,345l100,-45C380,271 433,244 433,162C433,84 370,30 269,30C193,30 124,65 76,119 z M269,-194C290,-194 307,-178 307,-153C307,-130 290,-114 269,-114C247,-114 230,-130 230,-153C230,-178 247,-194 269,-194z"/>
<glyph unicode="&#x1E9E;" horiz-adv-x="644" d="M98,0l46,0l0,409C144,562 219,630 337,630C412,630 460,588 485,535l-154,-170l3,-35C513,302 551,241 551,166C551,87 502,29 416,29C356,29 311,51 270,99l-31,-32C282,17 346,-12 416,-12C522,-12 599,65 599,167C599,260 545,337 382,363l156,170C499,616 439,671 339,671C196,671 98,583 98,422z"/>
<glyph unicode="&#x164;" horiz-adv-x="524" d="M239,0l46,0l0,619l210,0l0,40l-466,0l0,-40l210,0 z M338,815l-75,-72l-4,0l-75,72l-40,0l96,-106l42,0l96,106z"/>
<glyph unicode="&#x162;" horiz-adv-x="524" d="M285,0l0,619l210,0l0,40l-466,0l0,-40l210,0l0,-619l7,0l-39,-74C246,-84 274,-97 274,-127C274,-155 236,-170 181,-178l7,-30C252,-200 313,-175 313,-123C313,-83 286,-65 253,-54l28,54z"/>
<glyph unicode="&#x21A;" horiz-adv-x="524" d="M239,0l46,0l0,619l210,0l0,40l-466,0l0,-40l210,0 z M238,-51l-13,-29C254,-86 282,-98 282,-129C282,-156 244,-171 189,-179l7,-30C260,-201 321,-176 321,-124C321,-83 293,-62 238,-51z"/>
<glyph unicode="&#x1E6C;" horiz-adv-x="524" d="M239,0l46,0l0,619l210,0l0,40l-466,0l0,-40l210,0 z M263,-194C285,-194 301,-178 301,-153C301,-130 285,-114 263,-114C241,-114 225,-130 225,-153C225,-178 241,-194 263,-194z"/>
<glyph unicode="&#x1E6E;" horiz-adv-x="524" d="M239,0l46,0l0,619l210,0l0,40l-466,0l0,-40l210,0 z M377,-124l-229,0l0,-36l229,0z"/>
<glyph unicode="&#xD9;" horiz-adv-x="634" d="M95,253C95,47 203,-12 316,-12C430,-12 539,47 539,253l0,406l-43,0l0,-401C496,83 411,30 316,30C223,30 141,83 141,258l0,401l-46,0 z M314,709l40,0l-92,106l-58,0z"/>
<glyph unicode="&#xDA;" horiz-adv-x="634" d="M95,253C95,47 203,-12 316,-12C430,-12 539,47 539,253l0,406l-43,0l0,-401C496,83 411,30 316,30C223,30 141,83 141,258l0,401l-46,0 z M430,815l-58,0l-92,-106l41,0z"/>
<glyph unicode="&#xDB;" horiz-adv-x="634" d="M95,253C95,47 203,-12 316,-12C430,-12 539,47 539,253l0,406l-43,0l0,-401C496,83 411,30 316,30C223,30 141,83 141,258l0,401l-46,0 z M240,709l75,72l4,0l75,-72l40,0l-96,106l-42,0l-96,-106z"/>
<glyph unicode="&#x168;" horiz-adv-x="634" d="M95,253C95,47 203,-12 316,-12C430,-12 539,47 539,253l0,406l-43,0l0,-401C496,83 411,30 316,30C223,30 141,83 141,258l0,401l-46,0 z M376,716C421,716 444,764 447,808l-29,0C414,774 398,752 377,752C336,752 311,808 259,808C214,808 190,761 187,716l29,0C220,750 236,773 258,773C298,773 324,716 376,716z"/>
<glyph unicode="&#xDC;" horiz-adv-x="634" d="M95,253C95,47 203,-12 316,-12C430,-12 539,47 539,253l0,406l-43,0l0,-401C496,83 411,30 316,30C223,30 141,83 141,258l0,401l-46,0 z M238,725C259,725 275,739 275,761C275,784 259,798 238,798C217,798 202,784 202,761C202,739 217,725 238,725 z M396,725C417,725 433,739 433,761C433,784 417,798 396,798C375,798 359,784 359,761C359,739 375,725 396,725z"/>
<glyph unicode="&#x16A;" horiz-adv-x="634" d="M95,253C95,47 203,-12 316,-12C430,-12 539,47 539,253l0,406l-43,0l0,-401C496,83 411,30 316,30C223,30 141,83 141,258l0,401l-46,0 z M203,734l228,0l0,36l-228,0z"/>
<glyph unicode="&#x16C;" horiz-adv-x="634" d="M95,253C95,47 203,-12 316,-12C430,-12 539,47 539,253l0,406l-43,0l0,-401C496,83 411,30 316,30C223,30 141,83 141,258l0,401l-46,0 z M317,711C393,711 426,769 432,815l-33,0C393,780 369,743 317,743C266,743 241,780 235,815l-33,0C208,769 242,711 317,711z"/>
<glyph unicode="&#x16E;" horiz-adv-x="634" d="M95,253C95,47 203,-12 316,-12C430,-12 539,47 539,253l0,406l-43,0l0,-401C496,83 411,30 316,30C223,30 141,83 141,258l0,401l-46,0 z M317,700C362,700 399,732 399,782C399,831 362,864 317,864C270,864 235,831 235,782C235,732 270,700 317,700 z M317,726C288,726 265,745 265,782C265,817 288,838 317,838C344,838 368,817 368,782C368,745 344,726 317,726z"/>
<glyph unicode="&#x170;" horiz-adv-x="634" d="M95,253C95,47 203,-12 316,-12C430,-12 539,47 539,253l0,406l-43,0l0,-401C496,83 411,30 316,30C223,30 141,83 141,258l0,401l-46,0 z M262,709l79,106l-49,0l-67,-106 z M370,709l36,0l80,106l-49,0z"/>
<glyph unicode="&#x1D3;" horiz-adv-x="634" d="M95,253C95,47 203,-12 316,-12C430,-12 539,47 539,253l0,406l-43,0l0,-401C496,83 411,30 316,30C223,30 141,83 141,258l0,401l-46,0 z M394,815l-75,-72l-4,0l-75,72l-40,0l96,-106l42,0l96,106z"/>
<glyph unicode="&#x1D5;" horiz-adv-x="634" d="M95,253C95,47 203,-12 316,-12C430,-12 539,47 539,253l0,406l-43,0l0,-401C496,83 411,30 316,30C223,30 141,83 141,258l0,401l-46,0 z M203,854l228,0l0,33l-228,0 z M238,725C259,725 274,738 274,760C274,782 259,796 238,796C218,796 203,782 203,760C203,738 218,725 238,725 z M396,725C416,725 432,738 432,760C432,782 416,796 396,796C376,796 360,782 360,760C360,738 376,725 396,725z"/>
<glyph unicode="&#x1D7;" horiz-adv-x="634" d="M95,253C95,47 203,-12 316,-12C430,-12 539,47 539,253l0,406l-43,0l0,-401C496,83 411,30 316,30C223,30 141,83 141,258l0,401l-46,0 z M280,829l39,0l109,106l-54,0 z M238,725C259,725 274,738 274,760C274,782 259,796 238,796C218,796 203,782 203,760C203,738 218,725 238,725 z M396,725C416,725 432,738 432,760C432,782 416,796 396,796C376,796 360,782 360,760C360,738 376,725 396,725z"/>
<glyph unicode="&#x1D9;" horiz-adv-x="634" d="M95,253C95,47 203,-12 316,-12C430,-12 539,47 539,253l0,406l-43,0l0,-401C496,83 411,30 316,30C223,30 141,83 141,258l0,401l-46,0 z M238,725C259,725 274,738 274,760C274,782 259,796 238,796C218,796 203,782 203,760C203,738 218,725 238,725 z M396,725C416,725 432,738 432,760C432,782 416,796 396,796C376,796 360,782 360,760C360,738 376,725 396,725 z M394,935l-75,-72l-4,0l-75,72l-40,0l96,-106l42,0l96,106z"/>
<glyph unicode="&#x1DB;" horiz-adv-x="634" d="M95,253C95,47 203,-12 316,-12C430,-12 539,47 539,253l0,406l-43,0l0,-401C496,83 411,30 316,30C223,30 141,83 141,258l0,401l-46,0 z M260,935l-54,0l109,-106l39,0 z M396,725C416,725 432,738 432,760C432,782 416,796 396,796C376,796 360,782 360,760C360,738 376,725 396,725 z M238,725C259,725 274,738 274,760C274,782 259,796 238,796C218,796 203,782 203,760C203,738 218,725 238,725z"/>
<glyph unicode="&#x1EE4;" horiz-adv-x="634" d="M95,253C95,47 203,-12 316,-12C430,-12 539,47 539,253l0,406l-43,0l0,-401C496,83 411,30 316,30C223,30 141,83 141,258l0,401l-46,0 z M317,-194C339,-194 355,-178 355,-153C355,-130 339,-114 317,-114C295,-114 279,-130 279,-153C279,-178 295,-194 317,-194z"/>
<glyph unicode="&#x1EE6;" horiz-adv-x="634" d="M95,253C95,47 203,-12 316,-12C430,-12 539,47 539,253l0,406l-43,0l0,-401C496,83 411,30 316,30C223,30 141,83 141,258l0,401l-46,0 z M294,702C341,715 388,737 388,789C388,839 333,861 267,863l-4,-32C318,829 348,814 348,783C348,755 321,740 285,729z"/>
<glyph unicode="&#x172;" horiz-adv-x="634" d="M95,253C95,52 196,-12 325,-12C295,-42 261,-71 261,-123C261,-178 299,-205 346,-205C367,-205 396,-194 411,-181l-16,27C381,-164 369,-168 352,-168C326,-168 301,-151 301,-116C301,-81 332,-35 385,-8C466,32 539,81 539,253l0,406l-43,0l0,-401C496,83 411,30 316,30C223,30 141,83 141,258l0,401l-46,0z"/>
<glyph unicode="&#x1AF;" horiz-adv-x="645" d="M586,767C596,753 600,741 600,728C600,687 570,666 506,659l-10,0l0,-401C496,83 411,30 316,30C223,30 141,83 141,258l0,401l-46,0l0,-406C95,47 203,-12 316,-12C430,-12 539,47 539,253l0,380C592,645 640,669 640,731C640,751 633,768 621,786z"/>
<glyph unicode="&#x1EE8;" horiz-adv-x="645" d="M429,815l-58,0l-92,-106l41,0 z M586,767C596,753 600,741 600,728C600,687 570,666 506,659l-10,0l0,-401C496,83 411,30 316,30C223,30 141,83 141,258l0,401l-46,0l0,-406C95,47 203,-12 316,-12C430,-12 539,47 539,253l0,380C592,645 640,669 640,731C640,751 633,768 621,786z"/>
<glyph unicode="&#x1EEA;" horiz-adv-x="645" d="M353,709l-92,106l-58,0l110,-106 z M586,767C596,753 600,741 600,728C600,687 570,666 506,659l-10,0l0,-401C496,83 411,30 316,30C223,30 141,83 141,258l0,401l-46,0l0,-406C95,47 203,-12 316,-12C430,-12 539,47 539,253l0,380C592,645 640,669 640,731C640,751 633,768 621,786z"/>
<glyph unicode="&#x1EEC;" horiz-adv-x="645" d="M293,702C340,715 387,737 387,789C387,839 332,861 266,863l-4,-32C317,829 348,814 348,783C348,755 321,740 284,729 z M586,767C596,753 600,741 600,728C600,687 570,666 506,659l-10,0l0,-401C496,83 411,30 316,30C223,30 141,83 141,258l0,401l-46,0l0,-406C95,47 203,-12 316,-12C430,-12 539,47 539,253l0,380C592,645 640,669 640,731C640,751 633,768 621,786z"/>
<glyph unicode="&#x1EEE;" horiz-adv-x="645" d="M417,808C413,774 397,752 376,752C335,752 310,808 258,808C213,808 190,761 187,716l28,0C219,750 235,773 257,773C297,773 323,716 375,716C420,716 443,764 446,808 z M586,767C596,753 600,741 600,728C600,687 570,666 506,659l-10,0l0,-401C496,83 411,30 316,30C223,30 141,83 141,258l0,401l-46,0l0,-406C95,47 203,-12 316,-12C430,-12 539,47 539,253l0,380C592,645 640,669 640,731C640,751 633,768 621,786z"/>
<glyph unicode="&#x1EF0;" horiz-adv-x="645" d="M316,-114C295,-114 278,-130 278,-153C278,-178 295,-194 316,-194C338,-194 354,-178 354,-153C354,-130 338,-114 316,-114 z M586,767C596,753 600,741 600,728C600,687 570,666 506,659l-10,0l0,-401C496,83 411,30 316,30C223,30 141,83 141,258l0,401l-46,0l0,-406C95,47 203,-12 316,-12C430,-12 539,47 539,253l0,380C592,645 640,669 640,731C640,751 633,768 621,786z"/>
<glyph unicode="&#x1E80;" horiz-adv-x="770" d="M178,0l50,0l118,452C358,504 372,549 383,601l4,0C398,549 410,504 422,452l120,-452l51,0l147,659l-45,0l-83,-388C597,199 584,128 569,56l-4,0C547,128 530,199 512,271l-103,388l-47,0l-103,-388C241,199 224,127 208,56l-4,0C189,127 174,199 159,271l-83,388l-48,0 z M382,709l40,0l-92,106l-58,0z"/>
<glyph unicode="&#x1E82;" horiz-adv-x="770" d="M178,0l50,0l118,452C358,504 372,549 383,601l4,0C398,549 410,504 422,452l120,-452l51,0l147,659l-45,0l-83,-388C597,199 584,128 569,56l-4,0C547,128 530,199 512,271l-103,388l-47,0l-103,-388C241,199 224,127 208,56l-4,0C189,127 174,199 159,271l-83,388l-48,0 z M498,815l-58,0l-92,-106l40,0z"/>
<glyph unicode="&#x174;" horiz-adv-x="770" d="M178,0l50,0l118,452C358,504 372,549 383,601l4,0C398,549 410,504 422,452l120,-452l51,0l147,659l-45,0l-83,-388C597,199 584,128 569,56l-4,0C547,128 530,199 512,271l-103,388l-47,0l-103,-388C241,199 224,127 208,56l-4,0C189,127 174,199 159,271l-83,388l-48,0 z M308,709l75,72l4,0l75,-72l40,0l-96,106l-42,0l-96,-106z"/>
<glyph unicode="&#x1E84;" horiz-adv-x="770" d="M178,0l50,0l118,452C358,504 372,549 383,601l4,0C398,549 410,504 422,452l120,-452l51,0l147,659l-45,0l-83,-388C597,199 584,128 569,56l-4,0C547,128 530,199 512,271l-103,388l-47,0l-103,-388C241,199 224,127 208,56l-4,0C189,127 174,199 159,271l-83,388l-48,0 z M306,725C327,725 343,739 343,761C343,784 327,798 306,798C285,798 270,784 270,761C270,739 285,725 306,725 z M464,725C485,725 500,739 500,761C500,784 485,798 464,798C443,798 427,784 427,761C427,739 443,725 464,725z"/>
<glyph unicode="&#x1EF2;" horiz-adv-x="447" d="M200,0l46,0l0,267l198,392l-47,0l-100,-206C276,405 251,359 226,311l-4,0C196,359 175,405 152,453l-100,206l-49,0l197,-392 z M220,709l41,0l-93,106l-57,0z"/>
<glyph unicode="&#xDD;" horiz-adv-x="447" d="M200,0l46,0l0,267l198,392l-47,0l-100,-206C276,405 251,359 226,311l-4,0C196,359 175,405 152,453l-100,206l-49,0l197,-392 z M336,815l-57,0l-93,-106l41,0z"/>
<glyph unicode="&#x176;" horiz-adv-x="447" d="M200,0l46,0l0,267l198,392l-47,0l-100,-206C276,405 251,359 226,311l-4,0C196,359 175,405 152,453l-100,206l-49,0l197,-392 z M146,709l75,72l4,0l75,-72l40,0l-96,106l-42,0l-96,-106z"/>
<glyph unicode="&#x178;" horiz-adv-x="447" d="M200,0l46,0l0,267l198,392l-47,0l-100,-206C276,405 251,359 226,311l-4,0C196,359 175,405 152,453l-100,206l-49,0l197,-392 z M145,725C165,725 181,739 181,761C181,784 165,798 145,798C124,798 108,784 108,761C108,739 124,725 145,725 z M302,725C323,725 339,739 339,761C339,784 323,798 302,798C281,798 266,784 266,761C266,739 281,725 302,725z"/>
<glyph unicode="&#x1E8E;" horiz-adv-x="447" d="M200,0l46,0l0,267l198,392l-47,0l-100,-206C276,405 251,359 226,311l-4,0C196,359 175,405 152,453l-100,206l-49,0l197,-392 z M223,721C245,721 264,737 264,762C264,785 245,801 223,801C202,801 183,785 183,762C183,737 202,721 223,721z"/>
<glyph unicode="&#x1EF4;" horiz-adv-x="447" d="M200,0l46,0l0,267l198,392l-47,0l-100,-206C276,405 251,359 226,311l-4,0C196,359 175,405 152,453l-100,206l-49,0l197,-392 z M225,-194C247,-194 263,-178 263,-153C263,-130 247,-114 225,-114C204,-114 187,-130 187,-153C187,-178 204,-194 225,-194z"/>
<glyph unicode="&#x1EF6;" horiz-adv-x="447" d="M200,0l46,0l0,267l198,392l-47,0l-100,-206C276,405 251,359 226,311l-4,0C196,359 175,405 152,453l-100,206l-49,0l197,-392 z M200,702C248,715 294,737 294,789C294,839 239,861 173,863l-3,-32C224,829 255,814 255,783C255,755 228,740 191,729z"/>
<glyph unicode="&#x1EF8;" horiz-adv-x="447" d="M200,0l46,0l0,267l198,392l-47,0l-100,-206C276,405 251,359 226,311l-4,0C196,359 175,405 152,453l-100,206l-49,0l197,-392 z M282,716C327,716 350,764 353,808l-28,0C320,774 304,752 283,752C242,752 217,808 165,808C120,808 97,761 94,716l28,0C127,750 142,773 164,773C204,773 230,716 282,716z"/>
<glyph unicode="&#x179;" horiz-adv-x="538" d="M50,0l440,0l0,40l-383,0l380,592l0,27l-404,0l0,-40l346,0l-379,-592 z M392,815l-57,0l-93,-106l41,0z"/>
<glyph unicode="&#x17D;" horiz-adv-x="538" d="M50,0l440,0l0,40l-383,0l380,592l0,27l-404,0l0,-40l346,0l-379,-592 z M356,815l-74,-72l-4,0l-75,72l-41,0l96,-106l43,0l96,106z"/>
<glyph unicode="&#x17B;" horiz-adv-x="538" d="M50,0l440,0l0,40l-383,0l380,592l0,27l-404,0l0,-40l346,0l-379,-592 z M280,721C301,721 320,737 320,762C320,785 301,801 280,801C258,801 239,785 239,762C239,737 258,721 280,721z"/>
<glyph unicode="&#x1E92;" horiz-adv-x="538" d="M50,0l440,0l0,40l-383,0l380,592l0,27l-404,0l0,-40l346,0l-379,-592 z M281,-194C303,-194 319,-178 319,-153C319,-130 303,-114 281,-114C259,-114 243,-130 243,-153C243,-178 259,-194 281,-194z"/>
<glyph unicode="&#xD0;" horiz-adv-x="625" d="M164,39l0,293l163,0l0,33l-163,0l0,255l102,0C444,620 522,503 522,332C522,160 444,39 266,39 z M118,659l0,-294l-81,-2l0,-31l81,0l0,-332l153,0C474,0 570,132 570,332C570,531 474,659 270,659z"/>
<glyph unicode="&#xDE;" horiz-adv-x="563" d="M97,0l46,0l0,166l134,0C424,166 512,229 512,358C512,493 424,542 277,542l-134,0l0,117l-46,0 z M143,205l0,298l123,0C400,503 465,468 465,358C465,250 400,205 266,205z"/>
<glyph unicode="&#x18F;" horiz-adv-x="648" d="M546,299C536,135 449,27 322,27C201,27 117,134 109,299 z M156,565C197,605 259,632 326,632C465,632 545,517 547,337l-484,0C63,333 62,329 62,326C62,130 163,-12 322,-12C482,-12 593,123 593,331C593,540 493,671 326,671C244,671 175,639 132,596z"/>
<glyph unicode="&#xE0;" horiz-adv-x="499" d="M65,120C65,29 129,-12 205,-12C268,-12 326,23 375,62l2,0l5,-62l37,0l0,307C419,410 381,492 267,492C189,492 123,454 89,430l20,-33C141,421 197,453 262,453C356,453 377,374 375,301C162,277 65,226 65,120 z M111,122C111,198 178,244 375,267l0,-163C316,53 267,26 212,26C157,26 111,53 111,122 z M280,572l38,0l-91,136l-53,0z"/>
<glyph unicode="&#xE1;" horiz-adv-x="499" d="M65,120C65,29 129,-12 205,-12C268,-12 326,23 375,62l2,0l5,-62l37,0l0,307C419,410 381,492 267,492C189,492 123,454 89,430l20,-33C141,421 197,453 262,453C356,453 377,374 375,301C162,277 65,226 65,120 z M111,122C111,198 178,244 375,267l0,-163C316,53 267,26 212,26C157,26 111,53 111,122 z M351,708l-53,0l-91,-136l38,0z"/>
<glyph unicode="&#xE2;" horiz-adv-x="499" d="M65,120C65,29 129,-12 205,-12C268,-12 326,23 375,62l2,0l5,-62l37,0l0,307C419,410 381,492 267,492C189,492 123,454 89,430l20,-33C141,421 197,453 262,453C356,453 377,374 375,301C162,277 65,226 65,120 z M111,122C111,198 178,244 375,267l0,-163C316,53 267,26 212,26C157,26 111,53 111,122 z M149,572l37,0l75,99l4,0l74,-99l37,0l-94,136l-39,0z"/>
<glyph unicode="&#xE3;" horiz-adv-x="499" d="M65,120C65,29 129,-12 205,-12C268,-12 326,23 375,62l2,0l5,-62l37,0l0,307C419,410 381,492 267,492C189,492 123,454 89,430l20,-33C141,421 197,453 262,453C356,453 377,374 375,301C162,277 65,226 65,120 z M111,122C111,198 178,244 375,267l0,-163C316,53 267,26 212,26C157,26 111,53 111,122 z M139,581l30,0C173,616 185,636 207,636C243,636 269,581 318,581C365,581 383,628 386,670l-30,0C352,636 340,615 319,615C284,615 256,670 208,670C160,670 142,624 139,581z"/>
<glyph unicode="&#xE4;" horiz-adv-x="499" d="M65,120C65,29 129,-12 205,-12C268,-12 326,23 375,62l2,0l5,-62l37,0l0,307C419,410 381,492 267,492C189,492 123,454 89,430l20,-33C141,421 197,453 262,453C356,453 377,374 375,301C162,277 65,226 65,120 z M111,122C111,198 178,244 375,267l0,-163C316,53 267,26 212,26C157,26 111,53 111,122 z M184,598C205,598 220,614 220,635C220,655 205,671 184,671C163,671 147,655 147,635C147,614 163,598 184,598 z M341,598C362,598 378,614 378,635C378,655 362,671 341,671C321,671 305,655 305,635C305,614 321,598 341,598z"/>
<glyph unicode="&#x101;" horiz-adv-x="499" d="M65,120C65,29 129,-12 205,-12C268,-12 326,23 375,62l2,0l5,-62l37,0l0,307C419,410 381,492 267,492C189,492 123,454 89,430l20,-33C141,421 197,453 262,453C356,453 377,374 375,301C162,277 65,226 65,120 z M111,122C111,198 178,244 375,267l0,-163C316,53 267,26 212,26C157,26 111,53 111,122 z M149,606l227,0l0,36l-227,0z"/>
<glyph unicode="&#x103;" horiz-adv-x="499" d="M65,120C65,29 129,-12 205,-12C268,-12 326,23 375,62l2,0l5,-62l37,0l0,307C419,410 381,492 267,492C189,492 123,454 89,430l20,-33C141,421 197,453 262,453C356,453 377,374 375,301C162,277 65,226 65,120 z M111,122C111,198 178,244 375,267l0,-163C316,53 267,26 212,26C157,26 111,53 111,122 z M263,576C344,576 376,644 381,695l-33,0C343,652 316,608 263,608C209,608 182,652 177,695l-33,0C149,644 181,576 263,576z"/>
<glyph unicode="&#xE5;" horiz-adv-x="499" d="M65,120C65,29 129,-12 205,-12C268,-12 326,23 375,62l2,0l5,-62l37,0l0,307C419,410 381,492 267,492C189,492 123,454 89,430l20,-33C141,421 197,453 262,453C356,453 377,374 375,301C162,277 65,226 65,120 z M111,122C111,198 178,244 375,267l0,-163C316,53 267,26 212,26C157,26 111,53 111,122 z M263,539C309,539 345,574 345,625C345,677 309,712 263,712C216,712 180,677 180,625C180,574 216,539 263,539 z M263,565C233,565 210,589 210,625C210,662 233,686 263,686C292,686 315,662 315,625C315,589 292,565 263,565z"/>
<glyph unicode="&#x1CE;" horiz-adv-x="499" d="M65,120C65,29 129,-12 205,-12C268,-12 326,23 375,62l2,0l5,-62l37,0l0,307C419,410 381,492 267,492C189,492 123,454 89,430l20,-33C141,421 197,453 262,453C356,453 377,374 375,301C162,277 65,226 65,120 z M111,122C111,198 178,244 375,267l0,-163C316,53 267,26 212,26C157,26 111,53 111,122 z M243,572l39,0l94,136l-37,0l-74,-99l-4,0l-75,99l-37,0z"/>
<glyph unicode="&#x1EA1;" horiz-adv-x="499" d="M65,120C65,29 129,-12 205,-12C268,-12 326,23 375,62l2,0l5,-62l37,0l0,307C419,410 381,492 267,492C189,492 123,454 89,430l20,-33C141,421 197,453 262,453C356,453 377,374 375,301C162,277 65,226 65,120 z M111,122C111,198 178,244 375,267l0,-163C316,53 267,26 212,26C157,26 111,53 111,122 z M246,-194C268,-194 284,-178 284,-153C284,-130 268,-114 246,-114C225,-114 208,-130 208,-153C208,-178 225,-194 246,-194z"/>
<glyph unicode="&#x1EA3;" horiz-adv-x="499" d="M65,120C65,29 129,-12 205,-12C268,-12 326,23 375,62l2,0l5,-62l37,0l0,307C419,410 381,492 267,492C189,492 123,454 89,430l20,-33C141,421 197,453 262,453C356,453 377,374 375,301C162,277 65,226 65,120 z M111,122C111,198 178,244 375,267l0,-163C316,53 267,26 212,26C157,26 111,53 111,122 z M239,551C287,564 333,585 333,637C333,688 279,709 213,712l-4,-32C263,678 294,662 294,632C294,603 267,588 231,577z"/>
<glyph unicode="&#x1EA5;" horiz-adv-x="499" d="M65,120C65,29 129,-12 205,-12C268,-12 326,23 375,62l2,0l5,-62l37,0l0,307C419,410 381,492 267,492C189,492 123,454 89,430l20,-33C141,421 197,453 262,453C356,453 377,374 375,301C162,277 65,226 65,120 z M111,122C111,198 178,244 375,267l0,-163C316,53 267,26 212,26C157,26 111,53 111,122 z M159,572l36,0l66,78l4,0l65,-78l36,0l-84,114l-39,0 z M341,637l32,0l91,111l-47,0z"/>
<glyph unicode="&#x1EA7;" horiz-adv-x="499" d="M65,120C65,29 129,-12 205,-12C268,-12 326,23 375,62l2,0l5,-62l37,0l0,307C419,410 381,492 267,492C189,492 123,454 89,430l20,-33C141,421 197,453 262,453C356,453 377,374 375,301C162,277 65,226 65,120 z M111,122C111,198 178,244 375,267l0,-163C316,53 267,26 212,26C157,26 111,53 111,122 z M159,572l36,0l66,78l4,0l65,-78l36,0l-84,114l-39,0 z M358,748l-46,0l90,-111l33,0z"/>
<glyph unicode="&#x1EA9;" horiz-adv-x="499" d="M65,120C65,29 129,-12 205,-12C268,-12 326,23 375,62l2,0l5,-62l37,0l0,307C419,410 381,492 267,492C189,492 123,454 89,430l20,-33C141,421 197,453 262,453C356,453 377,374 375,301C162,277 65,226 65,120 z M111,122C111,198 178,244 375,267l0,-163C316,53 267,26 212,26C157,26 111,53 111,122 z M159,572l36,0l66,78l4,0l65,-78l36,0l-84,114l-39,0 z M365,628C403,640 445,658 445,704C445,752 398,772 339,774l-4,-29C384,743 407,729 407,699C407,676 386,663 357,653z"/>
<glyph unicode="&#x1EAB;" horiz-adv-x="499" d="M65,120C65,29 129,-12 205,-12C268,-12 326,23 375,62l2,0l5,-62l37,0l0,307C419,410 381,492 267,492C189,492 123,454 89,430l20,-33C141,421 197,453 262,453C356,453 377,374 375,301C162,277 65,226 65,120 z M111,122C111,198 178,244 375,267l0,-163C316,53 267,26 212,26C157,26 111,53 111,122 z M151,570l37,0l73,69l4,0l72,-69l37,0l-91,100l-41,0 z M170,706C174,736 190,751 211,751C246,751 265,706 313,706C360,706 381,745 384,783l-29,0C351,753 335,738 314,738C279,738 261,783 212,783C165,783 144,744 141,706z"/>
<glyph unicode="&#x1EAD;" horiz-adv-x="499" d="M65,120C65,29 129,-12 205,-12C268,-12 326,23 375,62l2,0l5,-62l37,0l0,307C419,410 381,492 267,492C189,492 123,454 89,430l20,-33C141,421 197,453 262,453C356,453 377,374 375,301C162,277 65,226 65,120 z M111,122C111,198 178,244 375,267l0,-163C316,53 267,26 212,26C157,26 111,53 111,122 z M149,572l37,0l75,99l4,0l74,-99l37,0l-94,136l-39,0 z M246,-194C268,-194 284,-178 284,-153C284,-130 268,-114 246,-114C225,-114 208,-130 208,-153C208,-178 225,-194 246,-194z"/>
<glyph unicode="&#x1EAF;" horiz-adv-x="499" d="M65,120C65,29 129,-12 205,-12C268,-12 326,23 375,62l2,0l5,-62l37,0l0,307C419,410 381,492 267,492C189,492 123,454 89,430l20,-33C141,421 197,453 262,453C356,453 377,374 375,301C162,277 65,226 65,120 z M111,122C111,198 178,244 375,267l0,-163C316,53 267,26 212,26C157,26 111,53 111,122 z M231,667l33,0l87,110l-47,0 z M263,576C344,576 376,644 381,695l-30,0C345,651 317,607 263,607C208,607 181,651 175,695l-31,0C149,644 181,576 263,576z"/>
<glyph unicode="&#x1EB1;" horiz-adv-x="499" d="M65,120C65,29 129,-12 205,-12C268,-12 326,23 375,62l2,0l5,-62l37,0l0,307C419,410 381,492 267,492C189,492 123,454 89,430l20,-33C141,421 197,453 262,453C356,453 377,374 375,301C162,277 65,226 65,120 z M111,122C111,198 178,244 375,267l0,-163C316,53 267,26 212,26C157,26 111,53 111,122 z M221,777l-47,0l87,-110l34,0 z M263,576C344,576 376,644 381,695l-30,0C345,651 317,607 263,607C208,607 181,651 175,695l-31,0C149,644 181,576 263,576z"/>
<glyph unicode="&#x1EB3;" horiz-adv-x="499" d="M65,120C65,29 129,-12 205,-12C268,-12 326,23 375,62l2,0l5,-62l37,0l0,307C419,410 381,492 267,492C189,492 123,454 89,430l20,-33C141,421 197,453 262,453C356,453 377,374 375,301C162,277 65,226 65,120 z M111,122C111,198 178,244 375,267l0,-163C316,53 267,26 212,26C157,26 111,53 111,122 z M263,576C344,576 376,644 381,695l-30,0C345,651 317,607 263,607C208,607 181,651 175,695l-31,0C149,644 181,576 263,576 z M241,675C278,687 320,705 320,752C320,799 273,819 214,821l-3,-29C259,790 282,777 282,746C282,723 261,710 233,701z"/>
<glyph unicode="&#x1EB5;" horiz-adv-x="499" d="M65,120C65,29 129,-12 205,-12C268,-12 326,23 375,62l2,0l5,-62l37,0l0,307C419,410 381,492 267,492C189,492 123,454 89,430l20,-33C141,421 197,453 262,453C356,453 377,374 375,301C162,277 65,226 65,120 z M111,122C111,198 178,244 375,267l0,-163C316,53 267,26 212,26C157,26 111,53 111,122 z M263,576C344,576 374,628 380,675l-32,0C342,640 315,607 263,607C210,607 183,640 177,675l-32,0C151,628 181,576 263,576 z M141,706l29,0C174,736 190,751 211,751C246,751 265,706 313,706C360,706 381,745 384,783l-29,0C351,753 335,738 314,738C279,738 261,783 212,783C165,783 144,744 141,706z"/>
<glyph unicode="&#x1EB7;" horiz-adv-x="499" d="M65,120C65,29 129,-12 205,-12C268,-12 326,23 375,62l2,0l5,-62l37,0l0,307C419,410 381,492 267,492C189,492 123,454 89,430l20,-33C141,421 197,453 262,453C356,453 377,374 375,301C162,277 65,226 65,120 z M111,122C111,198 178,244 375,267l0,-163C316,53 267,26 212,26C157,26 111,53 111,122 z M263,576C344,576 376,644 381,695l-33,0C343,652 316,608 263,608C209,608 182,652 177,695l-33,0C149,644 181,576 263,576 z M246,-194C268,-194 284,-178 284,-153C284,-130 268,-114 246,-114C225,-114 208,-130 208,-153C208,-178 225,-194 246,-194z"/>
<glyph unicode="&#x105;" horiz-adv-x="499" d="M111,122C111,198 178,244 375,267l0,-163C316,53 267,26 212,26C157,26 111,53 111,122 z M65,119C65,29 129,-12 205,-12C268,-12 326,23 375,62l2,0l5,-55C335,-22 295,-71 295,-122C295,-176 330,-203 376,-203C398,-203 426,-193 441,-180l-16,26C412,-164 400,-168 382,-168C357,-168 333,-151 333,-116C333,-73 369,-25 419,0l0,307C419,410 381,492 267,492C189,492 123,454 89,430l20,-33C141,421 197,453 262,453C356,453 377,374 375,301C162,277 65,226 65,119z"/>
<glyph unicode="&#xE6;" horiz-adv-x="784" d="M111,122C111,198 182,244 369,267l1,-27C370,195 377,148 391,119C336,60 264,26 212,26C157,26 111,53 111,122 z M109,397C141,421 197,453 257,453C351,453 371,374 370,301C163,277 65,226 65,119C65,29 129,-12 205,-12C265,-12 344,26 407,87C442,37 493,-12 579,-12C649,-12 689,12 727,35l-19,35C672,44 635,27 583,27C486,27 412,113 412,234l332,0C746,246 746,258 746,270C746,411 680,492 568,492C497,492 436,445 401,372C385,445 339,492 261,492C189,492 123,454 89,430 z M412,268C422,378 488,454 567,454C653,454 705,391 705,268z"/>
<glyph unicode="&#xE7;" horiz-adv-x="449" d="M285,-11C339,-7 385,18 423,52l-23,30C367,52 323,27 272,27C167,27 98,113 98,239C98,366 174,453 272,453C319,453 355,431 386,402l26,31C380,463 337,492 271,492C154,492 52,400 52,239C52,89 136,-2 250,-11l-33,-63C256,-84 284,-97 284,-127C284,-155 246,-170 191,-178l7,-30C262,-200 323,-175 323,-123C323,-83 296,-65 263,-54z"/>
<glyph unicode="&#x107;" horiz-adv-x="449" d="M52,239C52,80 146,-12 270,-12C331,-12 382,15 423,52l-23,30C367,52 323,27 272,27C167,27 98,113 98,239C98,366 174,453 272,453C319,453 355,431 386,402l26,31C380,463 337,492 271,492C154,492 52,400 52,239 z M360,708l-52,0l-92,-136l38,0z"/>
<glyph unicode="&#x109;" horiz-adv-x="449" d="M52,239C52,80 146,-12 270,-12C331,-12 382,15 423,52l-23,30C367,52 323,27 272,27C167,27 98,113 98,239C98,366 174,453 272,453C319,453 355,431 386,402l26,31C380,463 337,492 271,492C154,492 52,400 52,239 z M158,572l37,0l75,99l4,0l75,-99l36,0l-94,136l-39,0z"/>
<glyph unicode="&#x10D;" horiz-adv-x="449" d="M52,239C52,80 146,-12 270,-12C331,-12 382,15 423,52l-23,30C367,52 323,27 272,27C167,27 98,113 98,239C98,366 174,453 272,453C319,453 355,431 386,402l26,31C380,463 337,492 271,492C154,492 52,400 52,239 z M252,572l39,0l94,136l-36,0l-75,-99l-4,0l-75,99l-37,0z"/>
<glyph unicode="&#x10B;" horiz-adv-x="449" d="M52,239C52,80 146,-12 270,-12C331,-12 382,15 423,52l-23,30C367,52 323,27 272,27C167,27 98,113 98,239C98,366 174,453 272,453C319,453 355,431 386,402l26,31C380,463 337,492 271,492C154,492 52,400 52,239 z M272,596C293,596 310,612 310,637C310,660 293,676 272,676C250,676 234,660 234,637C234,612 250,596 272,596z"/>
<glyph unicode="&#x10F;" horiz-adv-x="549" d="M52,239C52,77 130,-12 251,-12C315,-12 368,23 407,62l3,0l4,-62l38,0l0,719l-44,0l0,-198l2,-88C362,470 323,492 265,492C151,492 52,394 52,239 z M99,239C99,360 172,453 268,453C315,453 357,436 408,391l0,-285C357,55 310,27 257,27C155,27 99,112 99,239 z M544,548l8,156l0,50l-38,0l3,-206z"/>
<glyph unicode="&#x1E0D;" horiz-adv-x="544" d="M52,239C52,77 130,-12 251,-12C315,-12 368,23 407,62l3,0l4,-62l38,0l0,719l-44,0l0,-198l2,-88C362,470 323,492 265,492C151,492 52,394 52,239 z M99,239C99,360 172,453 268,453C315,453 357,436 408,391l0,-285C357,55 310,27 257,27C155,27 99,112 99,239 z M296,-194C318,-194 334,-178 334,-153C334,-130 318,-114 296,-114C275,-114 258,-130 258,-153C258,-178 275,-194 296,-194z"/>
<glyph unicode="&#x1E0F;" horiz-adv-x="544" d="M52,239C52,77 130,-12 251,-12C315,-12 368,23 407,62l3,0l4,-62l38,0l0,719l-44,0l0,-198l2,-88C362,470 323,492 265,492C151,492 52,394 52,239 z M99,239C99,360 172,453 268,453C315,453 357,436 408,391l0,-285C357,55 310,27 257,27C155,27 99,112 99,239 z M409,-124l-229,0l0,-36l229,0z"/>
<glyph unicode="&#x111;" horiz-adv-x="544" d="M408,106C357,55 310,27 257,27C155,27 99,108 99,229C99,344 172,433 268,433C315,433 357,416 408,371 z M527,614l-75,0l0,105l-44,0l0,-105l-170,0l0,-33l170,0l0,-80l2,-88C362,450 323,472 265,472C151,472 52,378 52,229C52,73 130,-12 251,-12C315,-12 368,22 407,62l2,0l5,-62l38,0l0,581l75,4z"/>
<glyph unicode="&#xE8;" horiz-adv-x="483" d="M52,239C52,82 151,-12 274,-12C344,-12 387,12 425,35l-18,34C371,43 330,26 278,26C170,26 99,113 97,234l346,0C445,246 445,258 445,270C445,411 375,492 261,492C154,492 52,396 52,239 z M97,268C107,383 180,454 262,454C348,454 403,391 403,268 z M279,572l38,0l-92,136l-52,0z"/>
<glyph unicode="&#xE9;" horiz-adv-x="483" d="M52,239C52,82 151,-12 274,-12C344,-12 387,12 425,35l-18,34C371,43 330,26 278,26C170,26 99,113 97,234l346,0C445,246 445,258 445,270C445,411 375,492 261,492C154,492 52,396 52,239 z M97,268C107,383 180,454 262,454C348,454 403,391 403,268 z M350,708l-53,0l-91,-136l37,0z"/>
<glyph unicode="&#xEA;" horiz-adv-x="483" d="M52,239C52,82 151,-12 274,-12C344,-12 387,12 425,35l-18,34C371,43 330,26 278,26C170,26 99,113 97,234l346,0C445,246 445,258 445,270C445,411 375,492 261,492C154,492 52,396 52,239 z M97,268C107,383 180,454 262,454C348,454 403,391 403,268 z M148,572l36,0l75,99l4,0l75,-99l37,0l-94,136l-39,0z"/>
<glyph unicode="&#x11B;" horiz-adv-x="483" d="M52,239C52,82 151,-12 274,-12C344,-12 387,12 425,35l-18,34C371,43 330,26 278,26C170,26 99,113 97,234l346,0C445,246 445,258 445,270C445,411 375,492 261,492C154,492 52,396 52,239 z M97,268C107,383 180,454 262,454C348,454 403,391 403,268 z M242,572l39,0l94,136l-37,0l-75,-99l-4,0l-75,99l-36,0z"/>
<glyph unicode="&#xEB;" horiz-adv-x="483" d="M52,239C52,82 151,-12 274,-12C344,-12 387,12 425,35l-18,34C371,43 330,26 278,26C170,26 99,113 97,234l346,0C445,246 445,258 445,270C445,411 375,492 261,492C154,492 52,396 52,239 z M97,268C107,383 180,454 262,454C348,454 403,391 403,268 z M182,598C203,598 219,614 219,635C219,655 203,671 182,671C162,671 146,655 146,635C146,614 162,598 182,598 z M340,598C361,598 377,614 377,635C377,655 361,671 340,671C319,671 303,655 303,635C303,614 319,598 340,598z"/>
<glyph unicode="&#x113;" horiz-adv-x="483" d="M52,239C52,82 151,-12 274,-12C344,-12 387,12 425,35l-18,34C371,43 330,26 278,26C170,26 99,113 97,234l346,0C445,246 445,258 445,270C445,411 375,492 261,492C154,492 52,396 52,239 z M97,268C107,383 180,454 262,454C348,454 403,391 403,268 z M148,606l227,0l0,36l-227,0z"/>
<glyph unicode="&#x115;" horiz-adv-x="483" d="M52,239C52,82 151,-12 274,-12C344,-12 387,12 425,35l-18,34C371,43 330,26 278,26C170,26 99,113 97,234l346,0C445,246 445,258 445,270C445,411 375,492 261,492C154,492 52,396 52,239 z M97,268C107,383 180,454 262,454C348,454 403,391 403,268 z M261,576C343,576 374,644 380,695l-33,0C341,652 315,608 261,608C208,608 181,652 175,695l-33,0C148,644 180,576 261,576z"/>
<glyph unicode="&#x117;" horiz-adv-x="483" d="M52,239C52,82 151,-12 274,-12C344,-12 387,12 425,35l-18,34C371,43 330,26 278,26C170,26 99,113 97,234l346,0C445,246 445,258 445,270C445,411 375,492 261,492C154,492 52,396 52,239 z M97,268C107,383 180,454 262,454C348,454 403,391 403,268 z M261,596C283,596 299,612 299,637C299,660 283,676 261,676C240,676 223,660 223,637C223,612 240,596 261,596z"/>
<glyph unicode="&#x1EB9;" horiz-adv-x="483" d="M52,239C52,82 151,-12 274,-12C344,-12 387,12 425,35l-18,34C371,43 330,26 278,26C170,26 99,113 97,234l346,0C445,246 445,258 445,270C445,411 375,492 261,492C154,492 52,396 52,239 z M97,268C107,383 180,454 262,454C348,454 403,391 403,268 z M259,-194C280,-194 297,-178 297,-153C297,-130 280,-114 259,-114C237,-114 220,-130 220,-153C220,-178 237,-194 259,-194z"/>
<glyph unicode="&#x1EBB;" horiz-adv-x="483" d="M52,239C52,82 151,-12 274,-12C344,-12 387,12 425,35l-18,34C371,43 330,26 278,26C170,26 99,113 97,234l346,0C445,246 445,258 445,270C445,411 375,492 261,492C154,492 52,396 52,239 z M97,268C107,383 180,454 262,454C348,454 403,391 403,268 z M238,551C285,564 332,585 332,637C332,688 277,709 211,712l-4,-32C262,678 293,662 293,632C293,603 266,588 229,577z"/>
<glyph unicode="&#x1EBD;" horiz-adv-x="483" d="M52,239C52,82 151,-12 274,-12C344,-12 387,12 425,35l-18,34C371,43 330,26 278,26C170,26 99,113 97,234l346,0C445,246 445,258 445,270C445,411 375,492 261,492C154,492 52,396 52,239 z M97,268C107,383 180,454 262,454C348,454 403,391 403,268 z M137,581l31,0C172,616 184,636 205,636C241,636 268,581 316,581C364,581 382,628 385,670l-30,0C350,636 339,615 317,615C283,615 255,670 206,670C158,670 140,624 137,581z"/>
<glyph unicode="&#x1EBF;" horiz-adv-x="483" d="M52,239C52,82 151,-12 274,-12C344,-12 387,12 425,35l-18,34C371,43 330,26 278,26C170,26 99,113 97,234l346,0C445,246 445,258 445,270C445,411 375,492 261,492C154,492 52,396 52,239 z M97,268C107,383 180,454 262,454C348,454 403,391 403,268 z M158,572l36,0l65,78l4,0l66,-78l35,0l-83,114l-39,0 z M339,637l33,0l91,111l-47,0z"/>
<glyph unicode="&#x1EC1;" horiz-adv-x="483" d="M52,239C52,82 151,-12 274,-12C344,-12 387,12 425,35l-18,34C371,43 330,26 278,26C170,26 99,113 97,234l346,0C445,246 445,258 445,270C445,411 375,492 261,492C154,492 52,396 52,239 z M97,268C107,383 180,454 262,454C348,454 403,391 403,268 z M158,572l36,0l65,78l4,0l66,-78l35,0l-83,114l-39,0 z M357,748l-47,0l91,-111l33,0z"/>
<glyph unicode="&#x1EC3;" horiz-adv-x="483" d="M52,239C52,82 151,-12 274,-12C344,-12 387,12 425,35l-18,34C371,43 330,26 278,26C170,26 99,113 97,234l346,0C445,246 445,258 445,270C445,411 375,492 261,492C154,492 52,396 52,239 z M97,268C107,383 180,454 262,454C348,454 403,391 403,268 z M158,572l36,0l65,78l4,0l66,-78l35,0l-83,114l-39,0 z M364,628C402,640 443,658 443,704C443,752 396,772 337,774l-3,-29C382,743 405,729 405,699C405,676 384,663 356,653z"/>
<glyph unicode="&#x1EC5;" horiz-adv-x="483" d="M52,239C52,82 151,-12 274,-12C344,-12 387,12 425,35l-18,34C371,43 330,26 278,26C170,26 99,113 97,234l346,0C445,246 445,258 445,270C445,411 375,492 261,492C154,492 52,396 52,239 z M97,268C107,383 180,454 262,454C348,454 403,391 403,268 z M150,570l36,0l73,69l4,0l73,-69l36,0l-90,100l-41,0 z M169,706C173,736 188,751 210,751C245,751 263,706 312,706C359,706 380,745 383,783l-29,0C350,753 334,738 313,738C278,738 259,783 211,783C164,783 143,744 140,706z"/>
<glyph unicode="&#x1EC7;" horiz-adv-x="483" d="M52,239C52,82 151,-12 274,-12C344,-12 387,12 425,35l-18,34C371,43 330,26 278,26C170,26 99,113 97,234l346,0C445,246 445,258 445,270C445,411 375,492 261,492C154,492 52,396 52,239 z M97,268C107,383 180,454 262,454C348,454 403,391 403,268 z M148,572l36,0l75,99l4,0l75,-99l37,0l-94,136l-39,0 z M258,-194C279,-194 296,-178 296,-153C296,-130 279,-114 258,-114C236,-114 220,-130 220,-153C220,-178 236,-194 258,-194z"/>
<glyph unicode="&#x119;" horiz-adv-x="483" d="M52,239C52,82 151,-12 274,-12C296,-12 316,-10 337,-3C309,-27 274,-72 274,-122C274,-176 309,-203 355,-203C376,-203 405,-193 420,-180l-16,26C391,-164 379,-168 361,-168C335,-168 312,-150 312,-116C312,-72 339,-28 425,35l-18,34C371,43 330,26 278,26C170,26 99,113 97,234l346,0C445,246 445,256 445,270C445,411 375,492 261,492C154,492 52,396 52,239 z M97,268C107,384 180,454 262,454C349,454 403,391 403,268z"/>
<glyph unicode="&#x11D;" horiz-adv-x="487" d="M94,-94C94,-60 113,-23 157,7C182,1 207,-1 217,-1l103,0C392,-1 431,-21 431,-74C431,-134 362,-195 254,-195C152,-195 94,-154 94,-94 z M52,-98C52,-179 128,-231 249,-231C387,-231 476,-152 476,-69C476,7 426,41 318,41l-103,0C143,41 123,69 123,104C123,136 141,156 162,173C184,160 215,153 242,153C336,153 409,224 409,322C409,373 387,416 356,443l112,0l0,37l-163,0C290,486 268,492 242,492C148,492 73,422 73,323C73,265 103,217 133,191l0,-4C112,172 81,142 81,99C81,62 99,36 123,22l0,-4C79,-14 52,-56 52,-98 z M242,188C175,188 117,242 117,323C117,405 174,456 242,456C310,456 366,404 366,323C366,242 308,188 242,188 z M119,572l37,0l75,99l4,0l75,-99l36,0l-94,136l-39,0z"/>
<glyph unicode="&#x11F;" horiz-adv-x="487" d="M94,-94C94,-60 113,-23 157,7C182,1 207,-1 217,-1l103,0C392,-1 431,-21 431,-74C431,-134 362,-195 254,-195C152,-195 94,-154 94,-94 z M52,-98C52,-179 128,-231 249,-231C387,-231 476,-152 476,-69C476,7 426,41 318,41l-103,0C143,41 123,69 123,104C123,136 141,156 162,173C184,160 215,153 242,153C336,153 409,224 409,322C409,373 387,416 356,443l112,0l0,37l-163,0C290,486 268,492 242,492C148,492 73,422 73,323C73,265 103,217 133,191l0,-4C112,172 81,142 81,99C81,62 99,36 123,22l0,-4C79,-14 52,-56 52,-98 z M242,188C175,188 117,242 117,323C117,405 174,456 242,456C310,456 366,404 366,323C366,242 308,188 242,188 z M233,576C314,576 346,644 351,695l-32,0C313,652 286,608 233,608C179,608 152,652 147,695l-33,0C119,644 151,576 233,576z"/>
<glyph unicode="&#x121;" horiz-adv-x="487" d="M94,-94C94,-60 113,-23 157,7C182,1 207,-1 217,-1l103,0C392,-1 431,-21 431,-74C431,-134 362,-195 254,-195C152,-195 94,-154 94,-94 z M52,-98C52,-179 128,-231 249,-231C387,-231 476,-152 476,-69C476,7 426,41 318,41l-103,0C143,41 123,69 123,104C123,136 141,156 162,173C184,160 215,153 242,153C336,153 409,224 409,322C409,373 387,416 356,443l112,0l0,37l-163,0C290,486 268,492 242,492C148,492 73,422 73,323C73,265 103,217 133,191l0,-4C112,172 81,142 81,99C81,62 99,36 123,22l0,-4C79,-14 52,-56 52,-98 z M242,188C175,188 117,242 117,323C117,405 174,456 242,456C310,456 366,404 366,323C366,242 308,188 242,188 z M233,596C254,596 271,612 271,637C271,660 254,676 233,676C211,676 195,660 195,637C195,612 211,596 233,596z"/>
<glyph unicode="&#x123;" horiz-adv-x="487" d="M94,-94C94,-60 113,-23 157,7C182,1 207,-1 217,-1l103,0C392,-1 431,-21 431,-74C431,-134 362,-195 254,-195C152,-195 94,-154 94,-94 z M52,-98C52,-179 128,-231 249,-231C387,-231 476,-152 476,-69C476,7 426,41 318,41l-103,0C143,41 123,69 123,104C123,136 141,156 162,173C184,160 215,153 242,153C336,153 409,224 409,322C409,373 387,416 356,443l112,0l0,37l-163,0C290,486 268,492 242,492C148,492 73,422 73,323C73,265 103,217 133,191l0,-4C112,172 81,142 81,99C81,62 99,36 123,22l0,-4C79,-14 52,-56 52,-98 z M242,188C175,188 117,242 117,323C117,405 174,456 242,456C310,456 366,404 366,323C366,242 308,188 242,188 z M256,539l12,29C240,574 212,586 212,617C212,644 250,659 305,667l-7,30C234,689 173,664 173,612C173,571 201,550 256,539z"/>
<glyph unicode="&#x1E7;" horiz-adv-x="487" d="M94,-94C94,-60 113,-23 157,7C182,1 207,-1 217,-1l103,0C392,-1 431,-21 431,-74C431,-134 362,-195 254,-195C152,-195 94,-154 94,-94 z M52,-98C52,-179 128,-231 249,-231C387,-231 476,-152 476,-69C476,7 426,41 318,41l-103,0C143,41 123,69 123,104C123,136 141,156 162,173C184,160 215,153 242,153C336,153 409,224 409,322C409,373 387,416 356,443l112,0l0,37l-163,0C290,486 268,492 242,492C148,492 73,422 73,323C73,265 103,217 133,191l0,-4C112,172 81,142 81,99C81,62 99,36 123,22l0,-4C79,-14 52,-56 52,-98 z M242,188C175,188 117,242 117,323C117,405 174,456 242,456C310,456 366,404 366,323C366,242 308,188 242,188 z M213,572l39,0l94,136l-36,0l-75,-99l-4,0l-75,99l-37,0z"/>
<glyph unicode="&#x1E21;" horiz-adv-x="487" d="M94,-94C94,-60 113,-23 157,7C182,1 207,-1 217,-1l103,0C392,-1 431,-21 431,-74C431,-134 362,-195 254,-195C152,-195 94,-154 94,-94 z M52,-98C52,-179 128,-231 249,-231C387,-231 476,-152 476,-69C476,7 426,41 318,41l-103,0C143,41 123,69 123,104C123,136 141,156 162,173C184,160 215,153 242,153C336,153 409,224 409,322C409,373 387,416 356,443l112,0l0,37l-163,0C290,486 268,492 242,492C148,492 73,422 73,323C73,265 103,217 133,191l0,-4C112,172 81,142 81,99C81,62 99,36 123,22l0,-4C79,-14 52,-56 52,-98 z M242,188C175,188 117,242 117,323C117,405 174,456 242,456C310,456 366,404 366,323C366,242 308,188 242,188 z M119,606l227,0l0,36l-227,0z"/>
<glyph unicode="&#xE001;" horiz-adv-x="487" d="M94,-94C94,-60 113,-23 157,7C182,1 207,-1 217,-1l103,0C392,-1 431,-21 431,-74C431,-134 362,-195 254,-195C152,-195 94,-154 94,-94 z M52,-98C52,-179 128,-231 249,-231C387,-231 476,-152 476,-69C476,7 426,41 318,41l-103,0C143,41 123,69 123,104C123,136 141,156 162,173C184,160 215,153 242,153C336,153 409,224 409,322C409,373 387,416 356,443l112,0l0,37l-163,0C290,486 268,492 242,492C148,492 73,422 73,323C73,265 103,217 133,191l0,-4C112,172 81,142 81,99C81,62 99,36 123,22l0,-4C79,-14 52,-56 52,-98 z M242,188C175,188 117,242 117,323C117,405 174,456 242,456C310,456 366,404 366,323C366,242 308,188 242,188 z M109,581l30,0C143,616 155,636 177,636C213,636 239,581 288,581C335,581 353,628 356,670l-30,0C322,636 310,615 289,615C254,615 226,670 178,670C130,670 112,624 109,581z"/>
<glyph unicode="&#x125;" horiz-adv-x="528" d="M92,0l44,0l0,362C195,422 236,452 293,452C371,452 403,404 403,302l0,-302l44,0l0,308C447,432 401,492 302,492C236,492 186,455 136,405l0,106l0,208l-44,0 z M39,748l75,73l4,0l75,-73l40,0l-96,106l-42,0l-96,-106z"/>
<glyph unicode="&#x1E25;" horiz-adv-x="528" d="M92,0l44,0l0,362C195,422 236,452 293,452C371,452 403,404 403,302l0,-302l44,0l0,308C447,432 401,492 302,492C236,492 186,455 136,405l0,106l0,208l-44,0 z M282,-194C303,-194 320,-178 320,-153C320,-130 303,-114 282,-114C260,-114 244,-130 244,-153C244,-178 260,-194 282,-194z"/>
<glyph unicode="&#x1E2B;" horiz-adv-x="528" d="M92,0l44,0l0,362C195,422 236,452 293,452C371,452 403,404 403,302l0,-302l44,0l0,308C447,432 401,492 302,492C236,492 186,455 136,405l0,106l0,208l-44,0 z M281,-203C362,-203 394,-135 400,-84l-33,0C361,-127 334,-170 281,-170C227,-170 201,-127 195,-84l-33,0C167,-135 199,-203 281,-203z"/>
<glyph unicode="&#x127;" horiz-adv-x="528" d="M136,491l0,90l190,0l0,33l-190,0l0,105l-44,0l0,-105l-77,-4l0,-29l77,0l0,-581l44,0l0,342C195,402 236,432 293,432C371,432 403,384 403,282l0,-282l44,0l0,288C447,412 401,472 302,472C236,472 186,435 136,385z"/>
<glyph unicode="&#xEC;" horiz-adv-x="229" d="M92,0l44,0l0,480l-44,0 z M132,572l38,0l-92,136l-52,0z"/>
<glyph unicode="&#xED;" horiz-adv-x="229" d="M92,0l44,0l0,480l-44,0 z M203,708l-53,0l-91,-136l37,0z"/>
<glyph unicode="&#xEE;" horiz-adv-x="229" d="M92,0l44,0l0,480l-44,0 z M1,572l36,0l75,99l4,0l75,-99l37,0l-94,136l-39,0z"/>
<glyph unicode="&#x129;" horiz-adv-x="229" d="M92,0l44,0l0,480l-44,0 z M-10,581l31,0C25,616 37,636 58,636C94,636 121,581 169,581C217,581 235,628 238,670l-30,0C204,636 192,615 170,615C136,615 108,670 59,670C12,670 -7,624 -10,581z"/>
<glyph unicode="&#xEF;" horiz-adv-x="229" d="M92,0l44,0l0,480l-44,0 z M36,598C56,598 72,614 72,635C72,655 56,671 36,671C15,671 -1,655 -1,635C-1,614 15,598 36,598 z M193,598C214,598 230,614 230,635C230,655 214,671 193,671C172,671 157,655 157,635C157,614 172,598 193,598z"/>
<glyph unicode="&#x12B;" horiz-adv-x="229" d="M92,0l44,0l0,480l-44,0 z M1,606l227,0l0,36l-227,0z"/>
<glyph unicode="&#x1D0;" horiz-adv-x="229" d="M92,0l44,0l0,480l-44,0 z M95,572l39,0l94,136l-37,0l-75,-99l-4,0l-75,99l-36,0z"/>
<glyph unicode="&#x1EC9;" horiz-adv-x="229" d="M92,0l44,0l0,480l-44,0 z M91,551C139,564 185,585 185,637C185,688 130,709 64,712l-4,-32C115,678 146,662 146,632C146,603 119,588 82,577z"/>
<glyph unicode="&#x1ECB;" horiz-adv-x="229" d="M115,596C137,596 155,612 155,635C155,660 137,675 115,675C93,675 75,660 75,635C75,612 93,596 115,596 z M92,0l44,0l0,480l-44,0 z M115,-194C137,-194 153,-178 153,-153C153,-130 137,-114 115,-114C94,-114 77,-130 77,-153C77,-178 94,-194 115,-194z"/>
<glyph unicode="&#x12F;" horiz-adv-x="229" d="M92,0l7,0C70,-32 37,-71 37,-122C37,-176 72,-203 118,-203C139,-203 168,-193 183,-180l-16,26C153,-164 141,-168 124,-168C99,-168 75,-150 75,-116C75,-73 104,-34 136,0l0,480l-44,0 z M113,596C135,596 154,612 154,635C154,660 135,675 113,675C92,675 73,660 73,635C73,612 92,596 113,596z"/>
<glyph unicode="&#xE002;" horiz-adv-x="229" d="M92,0l7,0C70,-32 37,-71 37,-122C37,-176 72,-203 118,-203C139,-203 168,-193 183,-180l-16,26C153,-164 141,-168 124,-168C99,-168 75,-150 75,-116C75,-73 104,-34 136,0l0,480l-44,0z"/>
<glyph unicode="&#x131;" horiz-adv-x="229" d="M92,0l44,0l0,480l-44,0z"/>
<glyph unicode="&#x135;" horiz-adv-x="229" d="M92,-86C92,-147 82,-191 28,-191C9,-191 -10,-185 -22,-181l-11,-36C-18,-223 6,-229 29,-229C103,-229 137,-183 137,-89l0,569l-45,0 z M1,572l37,0l75,99l4,0l75,-99l36,0l-94,136l-39,0z"/>
<glyph unicode="&#x137;" horiz-adv-x="464" d="M92,0l44,0l0,131l108,126l159,-257l49,0l-182,290l156,190l-51,0l-237,-291l-2,0l0,530l-44,0 z M232,-51l-12,-29C248,-86 276,-98 276,-129C276,-156 238,-171 183,-179l7,-30C254,-201 315,-176 315,-124C315,-83 287,-62 232,-51z"/>
<glyph unicode="&#x138;" horiz-adv-x="464" d="M92,0l44,0l0,130l108,127l159,-257l49,0l-182,290l156,190l-51,0l-236,-291l-3,0l0,291l-44,0z"/>
<glyph unicode="&#x13A;" horiz-adv-x="237" d="M92,64C92,12 112,-12 151,-12C165,-12 174,-10 183,-7l-8,36C165,27 161,27 157,27C145,27 136,37 136,58l0,661l-44,0 z M220,866l-58,0l-93,-106l41,0z"/>
<glyph unicode="&#x13E;" horiz-adv-x="234" d="M92,64C92,12 112,-12 151,-12C165,-12 174,-10 183,-7l-8,36C165,27 161,27 157,27C145,27 136,37 136,58l0,661l-44,0 z M228,548l9,156l0,50l-38,0l2,-206z"/>
<glyph unicode="&#x140;" horiz-adv-x="308" d="M92,64C92,12 112,-12 151,-12C165,-12 174,-10 183,-7l-8,36C165,27 161,27 157,27C145,27 136,37 136,58l0,661l-44,0 z M225,323C225,295 245,278 267,278C289,278 310,295 310,323C310,352 289,369 267,369C245,369 225,352 225,323z"/>
<glyph unicode="&#x13C;" horiz-adv-x="237" d="M92,64C92,12 112,-12 151,-12C165,-12 174,-10 183,-7l-8,36C165,27 161,27 157,27C145,27 136,37 136,58l0,661l-44,0 z M133,-51l-12,-29C149,-86 177,-98 177,-129C177,-156 139,-171 84,-179l7,-30C155,-201 216,-176 216,-124C216,-83 188,-62 133,-51z"/>
<glyph unicode="&#x1E37;" horiz-adv-x="237" d="M92,64C92,12 112,-12 151,-12C165,-12 174,-10 183,-7l-8,36C165,27 161,27 157,27C145,27 136,37 136,58l0,661l-44,0 z M158,-194C180,-194 196,-178 196,-153C196,-130 180,-114 158,-114C137,-114 120,-130 120,-153C120,-178 137,-194 158,-194z"/>
<glyph unicode="&#x1E39;" horiz-adv-x="237" d="M92,64C92,12 112,-12 151,-12C165,-12 174,-10 183,-7l-8,36C165,27 161,27 157,27C145,27 136,37 136,58l0,661l-44,0 z M0,832l227,0l0,36l-227,0 z M158,-194C180,-194 196,-178 196,-153C196,-130 180,-114 158,-114C137,-114 120,-130 120,-153C120,-178 137,-194 158,-194z"/>
<glyph unicode="&#x1E3B;" horiz-adv-x="237" d="M92,64C92,12 112,-12 151,-12C165,-12 174,-10 183,-7l-8,36C165,27 161,27 157,27C145,27 136,37 136,58l0,661l-44,0 z M272,-124l-229,0l0,-36l229,0z"/>
<glyph unicode="&#x142;" horiz-adv-x="239" d="M211,437l0,43l-73,-48l0,287l-45,0l0,-313l-65,-43l0,-42l65,43l0,-300C93,12 113,-12 152,-12C167,-12 175,-10 184,-7l-8,36C167,27 163,27 158,27C146,27 138,37 138,58l0,331z"/>
<glyph unicode="&#x1E43;" horiz-adv-x="812" d="M92,0l44,0l0,362C189,422 237,452 280,452C354,452 388,404 388,302l0,-302l44,0l0,362C485,422 531,452 576,452C649,452 683,404 683,302l0,-302l45,0l0,308C728,432 680,492 584,492C529,492 476,454 421,394C404,453 365,492 288,492C235,492 180,455 137,406l-3,0l-4,74l-38,0 z M419,-194C440,-194 457,-178 457,-153C457,-130 440,-114 419,-114C397,-114 381,-130 381,-153C381,-178 397,-194 419,-194z"/>
<glyph unicode="&#x144;" horiz-adv-x="532" d="M92,0l44,0l0,362C195,422 236,452 293,452C371,452 403,404 403,302l0,-302l44,0l0,308C447,432 401,492 302,492C236,492 186,455 137,406l-3,0l-4,74l-38,0 z M371,708l-53,0l-91,-136l38,0z"/>
<glyph unicode="&#x148;" horiz-adv-x="532" d="M92,0l44,0l0,362C195,422 236,452 293,452C371,452 403,404 403,302l0,-302l44,0l0,308C447,432 401,492 302,492C236,492 186,455 137,406l-3,0l-4,74l-38,0 z M263,572l39,0l94,136l-36,0l-75,-99l-4,0l-75,99l-37,0z"/>
<glyph unicode="&#xF1;" horiz-adv-x="532" d="M92,0l44,0l0,362C195,422 236,452 293,452C371,452 403,404 403,302l0,-302l44,0l0,308C447,432 401,492 302,492C236,492 186,455 137,406l-3,0l-4,74l-38,0 z M159,581l30,0C193,616 205,636 227,636C263,636 289,581 338,581C385,581 403,628 406,670l-30,0C372,636 360,615 339,615C304,615 276,670 228,670C180,670 162,624 159,581z"/>
<glyph unicode="&#x146;" horiz-adv-x="532" d="M92,0l44,0l0,362C195,422 236,452 293,452C371,452 403,404 403,302l0,-302l44,0l0,308C447,432 401,492 302,492C236,492 186,455 137,406l-3,0l-4,74l-38,0 z M246,-51l-12,-29C262,-86 290,-98 290,-129C290,-156 253,-171 198,-179l6,-30C269,-201 330,-176 330,-124C330,-83 301,-62 246,-51z"/>
<glyph unicode="&#x1E45;" horiz-adv-x="532" d="M92,0l44,0l0,362C195,422 236,452 293,452C371,452 403,404 403,302l0,-302l44,0l0,308C447,432 401,492 302,492C236,492 186,455 137,406l-3,0l-4,74l-38,0 z M283,596C304,596 321,612 321,637C321,660 304,676 283,676C261,676 244,660 244,637C244,612 261,596 283,596z"/>
<glyph unicode="&#x1E47;" horiz-adv-x="532" d="M92,0l44,0l0,362C195,422 236,452 293,452C371,452 403,404 403,302l0,-302l44,0l0,308C447,432 401,492 302,492C236,492 186,455 137,406l-3,0l-4,74l-38,0 z M273,-194C294,-194 311,-178 311,-153C311,-130 294,-114 273,-114C251,-114 235,-130 235,-153C235,-178 251,-194 273,-194z"/>
<glyph unicode="&#x1E49;" horiz-adv-x="532" d="M92,0l44,0l0,362C195,422 236,452 293,452C371,452 403,404 403,302l0,-302l44,0l0,308C447,432 401,492 302,492C236,492 186,455 137,406l-3,0l-4,74l-38,0 z M385,-124l-229,0l0,-36l229,0z"/>
<glyph unicode="&#x149;" horiz-adv-x="729" d="M76,477C130,512 162,562 162,633C162,676 144,700 117,700C94,700 78,685 78,660C78,635 98,623 117,623C120,623 123,623 125,624C125,567 102,536 58,500 z M324,406l-5,74l-37,0l0,-480l44,0l0,362C384,422 426,452 483,452C560,452 592,404 592,302l0,-302l44,0l0,308C636,432 590,492 491,492C425,492 375,455 326,406z"/>
<glyph unicode="&#xF2;" horiz-adv-x="535" d="M52,239C52,80 152,-12 267,-12C383,-12 483,80 483,239C483,400 383,492 267,492C152,492 52,400 52,239 z M98,239C98,366 170,453 267,453C364,453 437,366 437,239C437,113 364,27 267,27C170,27 98,113 98,239 z M285,572l38,0l-92,136l-52,0z"/>
<glyph unicode="&#xF3;" horiz-adv-x="535" d="M52,239C52,80 152,-12 267,-12C383,-12 483,80 483,239C483,400 383,492 267,492C152,492 52,400 52,239 z M98,239C98,366 170,453 267,453C364,453 437,366 437,239C437,113 364,27 267,27C170,27 98,113 98,239 z M356,708l-53,0l-91,-136l37,0z"/>
<glyph unicode="&#xF4;" horiz-adv-x="535" d="M52,239C52,80 152,-12 267,-12C383,-12 483,80 483,239C483,400 383,492 267,492C152,492 52,400 52,239 z M98,239C98,366 170,453 267,453C364,453 437,366 437,239C437,113 364,27 267,27C170,27 98,113 98,239 z M154,572l36,0l75,99l4,0l75,-99l37,0l-94,136l-39,0z"/>
<glyph unicode="&#xF5;" horiz-adv-x="535" d="M52,239C52,80 152,-12 267,-12C383,-12 483,80 483,239C483,400 383,492 267,492C152,492 52,400 52,239 z M98,239C98,366 170,453 267,453C364,453 437,366 437,239C437,113 364,27 267,27C170,27 98,113 98,239 z M144,581l30,0C178,616 190,636 211,636C248,636 274,581 322,581C370,581 388,628 391,670l-30,0C357,636 345,615 323,615C289,615 261,670 212,670C165,670 147,624 144,581z"/>
<glyph unicode="&#xF6;" horiz-adv-x="535" d="M52,239C52,80 152,-12 267,-12C383,-12 483,80 483,239C483,400 383,492 267,492C152,492 52,400 52,239 z M98,239C98,366 170,453 267,453C364,453 437,366 437,239C437,113 364,27 267,27C170,27 98,113 98,239 z M189,598C209,598 225,614 225,635C225,655 209,671 189,671C168,671 152,655 152,635C152,614 168,598 189,598 z M346,598C367,598 383,614 383,635C383,655 367,671 346,671C325,671 310,655 310,635C310,614 325,598 346,598z"/>
<glyph unicode="&#x14D;" horiz-adv-x="535" d="M52,239C52,80 152,-12 267,-12C383,-12 483,80 483,239C483,400 383,492 267,492C152,492 52,400 52,239 z M98,239C98,366 170,453 267,453C364,453 437,366 437,239C437,113 364,27 267,27C170,27 98,113 98,239 z M154,606l227,0l0,36l-227,0z"/>
<glyph unicode="&#x151;" horiz-adv-x="535" d="M52,239C52,80 152,-12 267,-12C383,-12 483,80 483,239C483,400 383,492 267,492C152,492 52,400 52,239 z M98,239C98,366 170,453 267,453C364,453 437,366 437,239C437,113 364,27 267,27C170,27 98,113 98,239 z M185,570l34,0l84,138l-46,0 z M319,570l33,0l84,138l-46,0z"/>
<glyph unicode="&#x1D2;" horiz-adv-x="535" d="M52,239C52,80 152,-12 267,-12C383,-12 483,80 483,239C483,400 383,492 267,492C152,492 52,400 52,239 z M98,239C98,366 170,453 267,453C364,453 437,366 437,239C437,113 364,27 267,27C170,27 98,113 98,239 z M248,572l39,0l94,136l-37,0l-75,-99l-4,0l-75,99l-36,0z"/>
<glyph unicode="&#x1ECD;" horiz-adv-x="535" d="M52,239C52,80 152,-12 267,-12C383,-12 483,80 483,239C483,400 383,492 267,492C152,492 52,400 52,239 z M98,239C98,366 170,453 267,453C364,453 437,366 437,239C437,113 364,27 267,27C170,27 98,113 98,239 z M268,-194C290,-194 306,-178 306,-153C306,-130 290,-114 268,-114C247,-114 230,-130 230,-153C230,-178 247,-194 268,-194z"/>
<glyph unicode="&#x1ECF;" horiz-adv-x="535" d="M52,239C52,80 152,-12 267,-12C383,-12 483,80 483,239C483,400 383,492 267,492C152,492 52,400 52,239 z M98,239C98,366 170,453 267,453C364,453 437,366 437,239C437,113 364,27 267,27C170,27 98,113 98,239 z M244,551C292,564 338,585 338,637C338,688 283,709 217,712l-3,-32C268,678 299,662 299,632C299,603 272,588 235,577z"/>
<glyph unicode="&#x1ED1;" horiz-adv-x="535" d="M52,239C52,80 152,-12 267,-12C383,-12 483,80 483,239C483,400 383,492 267,492C152,492 52,400 52,239 z M98,239C98,366 170,453 267,453C364,453 437,366 437,239C437,113 364,27 267,27C170,27 98,113 98,239 z M164,572l36,0l65,78l4,0l66,-78l35,0l-83,114l-39,0 z M345,637l33,0l91,111l-47,0z"/>
<glyph unicode="&#x1ED3;" horiz-adv-x="535" d="M52,239C52,80 152,-12 267,-12C383,-12 483,80 483,239C483,400 383,492 267,492C152,492 52,400 52,239 z M98,239C98,366 170,453 267,453C364,453 437,366 437,239C437,113 364,27 267,27C170,27 98,113 98,239 z M164,572l36,0l65,78l4,0l66,-78l35,0l-83,114l-39,0 z M363,748l-46,0l90,-111l33,0z"/>
<glyph unicode="&#x1ED5;" horiz-adv-x="535" d="M52,239C52,80 152,-12 267,-12C383,-12 483,80 483,239C483,400 383,492 267,492C152,492 52,400 52,239 z M98,239C98,366 170,453 267,453C364,453 437,366 437,239C437,113 364,27 267,27C170,27 98,113 98,239 z M164,572l36,0l65,78l4,0l66,-78l35,0l-83,114l-39,0 z M370,628C408,640 449,658 449,704C449,752 403,772 344,774l-4,-29C389,743 411,729 411,699C411,676 391,663 362,653z"/>
<glyph unicode="&#x1ED7;" horiz-adv-x="535" d="M52,239C52,80 152,-12 267,-12C383,-12 483,80 483,239C483,400 383,492 267,492C152,492 52,400 52,239 z M98,239C98,366 170,453 267,453C364,453 437,366 437,239C437,113 364,27 267,27C170,27 98,113 98,239 z M156,570l37,0l72,69l4,0l73,-69l36,0l-90,100l-41,0 z M175,706C179,736 195,751 216,751C251,751 269,706 318,706C365,706 386,745 389,783l-29,0C356,753 340,738 319,738C284,738 265,783 217,783C170,783 149,744 146,706z"/>
<glyph unicode="&#x1ED9;" horiz-adv-x="535" d="M52,239C52,80 152,-12 267,-12C383,-12 483,80 483,239C483,400 383,492 267,492C152,492 52,400 52,239 z M98,239C98,366 170,453 267,453C364,453 437,366 437,239C437,113 364,27 267,27C170,27 98,113 98,239 z M154,572l36,0l75,99l4,0l75,-99l37,0l-94,136l-39,0 z M268,-194C290,-194 306,-178 306,-153C306,-130 290,-114 268,-114C247,-114 230,-130 230,-153C230,-178 247,-194 268,-194z"/>
<glyph unicode="&#xF8;" horiz-adv-x="535" d="M402,376C425,340 438,293 438,238C438,112 364,26 267,26C223,26 183,44 153,76 z M133,103C110,139 97,186 97,240C97,366 170,454 267,454C312,454 352,436 382,403 z M489,480l-26,21l-54,-65C370,473 320,492 267,492C152,492 52,400 52,239C52,168 72,111 104,69l-58,-70l26,-21l54,66C165,7 214,-12 267,-12C383,-12 483,80 483,239C483,310 463,368 431,411z"/>
<glyph unicode="&#x153;" horiz-adv-x="848" d="M98,239C98,366 169,453 263,453C359,453 428,366 428,239C428,113 359,27 263,27C169,27 98,113 98,239 z M52,239C52,80 151,-12 263,-12C347,-12 413,36 450,129C484,43 555,-12 639,-12C710,-12 753,12 791,35l-19,35C736,44 696,27 644,27C547,27 471,113 471,234l337,0C810,246 811,258 811,270C811,411 741,492 628,492C551,492 484,437 449,350C415,444 340,492 263,492C151,492 52,400 52,239 z M471,268C481,378 548,454 628,454C713,454 769,391 769,268z"/>
<glyph unicode="&#x1A1;" horiz-adv-x="535" d="M267,27C170,27 98,113 98,239C98,366 170,453 267,453C364,453 437,366 437,239C437,113 364,27 267,27 z M431,578C441,565 446,552 446,539C446,501 416,478 359,471C331,485 300,492 267,492C152,492 52,400 52,239C52,80 152,-12 267,-12C383,-12 483,80 483,239C483,334 448,405 396,447C442,460 486,485 486,542C486,562 479,580 466,598z"/>
<glyph unicode="&#x1EDB;" horiz-adv-x="535" d="M356,708l-53,0l-91,-136l37,0 z M267,27C170,27 98,113 98,239C98,366 170,453 267,453C364,453 437,366 437,239C437,113 364,27 267,27 z M431,578C441,565 446,552 446,539C446,501 416,478 359,471C331,485 300,492 267,492C152,492 52,400 52,239C52,80 152,-12 267,-12C383,-12 483,80 483,239C483,334 448,405 396,447C442,460 486,485 486,542C486,562 479,580 466,598z"/>
<glyph unicode="&#x1EDD;" horiz-adv-x="535" d="M323,572l-92,136l-52,0l106,-136 z M267,27C170,27 98,113 98,239C98,366 170,453 267,453C364,453 437,366 437,239C437,113 364,27 267,27 z M431,578C441,565 446,552 446,539C446,501 416,478 359,471C331,485 300,492 267,492C152,492 52,400 52,239C52,80 152,-12 267,-12C383,-12 483,80 483,239C483,334 448,405 396,447C442,460 486,485 486,542C486,562 479,580 466,598z"/>
<glyph unicode="&#x1EDF;" horiz-adv-x="535" d="M244,551C292,564 338,585 338,637C338,688 283,709 217,712l-3,-32C268,678 299,662 299,632C299,603 272,588 235,577 z M267,27C170,27 98,113 98,239C98,366 170,453 267,453C364,453 437,366 437,239C437,113 364,27 267,27 z M431,578C441,565 446,552 446,539C446,501 416,478 359,471C331,485 300,492 267,492C152,492 52,400 52,239C52,80 152,-12 267,-12C383,-12 483,80 483,239C483,334 448,405 396,447C442,460 486,485 486,542C486,562 479,580 466,598z"/>
<glyph unicode="&#x1EE1;" horiz-adv-x="535" d="M361,670C357,636 345,615 323,615C289,615 261,670 212,670C165,670 147,624 144,581l30,0C178,616 190,636 211,636C248,636 274,581 322,581C370,581 388,628 391,670 z M267,27C170,27 98,113 98,239C98,366 170,453 267,453C364,453 437,366 437,239C437,113 364,27 267,27 z M431,578C441,565 446,552 446,539C446,501 416,478 359,471C331,485 300,492 267,492C152,492 52,400 52,239C52,80 152,-12 267,-12C383,-12 483,80 483,239C483,334 448,405 396,447C442,460 486,485 486,542C486,562 479,580 466,598z"/>
<glyph unicode="&#x1EE3;" horiz-adv-x="535" d="M268,-114C247,-114 230,-130 230,-153C230,-178 247,-194 268,-194C290,-194 306,-178 306,-153C306,-130 290,-114 268,-114 z M267,27C170,27 98,113 98,239C98,366 170,453 267,453C364,453 437,366 437,239C437,113 364,27 267,27 z M431,578C441,565 446,552 446,539C446,501 416,478 359,471C331,485 300,492 267,492C152,492 52,400 52,239C52,80 152,-12 267,-12C383,-12 483,80 483,239C483,334 448,405 396,447C442,460 486,485 486,542C486,562 479,580 466,598z"/>
<glyph unicode="&#x1EB;" horiz-adv-x="535" d="M213,-122C213,-176 249,-203 294,-203C316,-203 344,-193 359,-180l-16,26C330,-164 318,-168 300,-168C275,-168 251,-151 251,-116C251,-74 282,-27 326,-7C419,35 483,102 483,239C483,400 383,492 267,492C152,492 52,400 52,239C52,82 150,-10 269,-12C247,-30 213,-72 213,-122 z M98,239C98,366 170,453 267,453C364,453 437,366 437,239C437,113 364,27 267,27C170,27 98,113 98,239z"/>
<glyph unicode="&#x155;" horiz-adv-x="317" d="M92,0l44,0l0,327C173,417 224,450 267,450C286,450 295,448 311,442l10,40C305,490 291,492 273,492C216,492 169,450 137,391l-3,0l-4,89l-38,0 z M289,708l-53,0l-91,-136l37,0z"/>
<glyph unicode="&#x157;" horiz-adv-x="317" d="M92,0l44,0l0,327C173,417 224,450 267,450C286,450 295,448 311,442l10,40C305,490 291,492 273,492C216,492 169,450 137,391l-3,0l-4,89l-38,0 z M86,-51l-12,-29C102,-86 130,-98 130,-129C130,-156 93,-171 38,-179l6,-30C108,-201 169,-176 169,-124C169,-83 141,-62 86,-51z"/>
<glyph unicode="&#x159;" horiz-adv-x="317" d="M92,0l44,0l0,327C173,417 224,450 267,450C286,450 295,448 311,442l10,40C305,490 291,492 273,492C216,492 169,450 137,391l-3,0l-4,89l-38,0 z M181,572l39,0l94,136l-37,0l-75,-99l-4,0l-75,99l-36,0z"/>
<glyph unicode="&#x1E5B;" horiz-adv-x="317" d="M92,0l44,0l0,327C173,417 224,450 267,450C286,450 295,448 311,442l10,40C305,490 291,492 273,492C216,492 169,450 137,391l-3,0l-4,89l-38,0 z M113,-194C134,-194 151,-178 151,-153C151,-130 134,-114 113,-114C91,-114 74,-130 74,-153C74,-178 91,-194 113,-194z"/>
<glyph unicode="&#x1E5D;" horiz-adv-x="317" d="M92,0l44,0l0,327C173,417 224,450 267,450C286,450 295,448 311,442l10,40C305,490 291,492 273,492C216,492 169,450 137,391l-3,0l-4,89l-38,0 z M87,606l227,0l0,36l-227,0 z M113,-194C134,-194 151,-178 151,-153C151,-130 134,-114 113,-114C91,-114 74,-130 74,-153C74,-178 91,-194 113,-194z"/>
<glyph unicode="&#x1E5F;" horiz-adv-x="317" d="M92,0l44,0l0,327C173,417 224,450 267,450C286,450 295,448 311,442l10,40C305,490 291,492 273,492C216,492 169,450 137,391l-3,0l-4,89l-38,0 z M225,-124l-229,0l0,-36l229,0z"/>
<glyph unicode="&#x15B;" horiz-adv-x="405" d="M32,54C75,18 137,-12 208,-12C312,-12 370,51 370,123C370,217 288,242 213,270C156,291 100,312 100,367C100,411 134,454 208,454C257,454 291,435 323,411l24,31C312,471 261,492 210,492C110,492 55,434 55,364C55,282 135,253 208,227C263,207 325,181 325,121C325,70 286,26 211,26C142,26 99,53 58,87 z M299,708l-53,0l-91,-136l38,0z"/>
<glyph unicode="&#x15D;" horiz-adv-x="405" d="M32,54C75,18 137,-12 208,-12C312,-12 370,51 370,123C370,217 288,242 213,270C156,291 100,312 100,367C100,411 134,454 208,454C257,454 291,435 323,411l24,31C312,471 261,492 210,492C110,492 55,434 55,364C55,282 135,253 208,227C263,207 325,181 325,121C325,70 286,26 211,26C142,26 99,53 58,87 z M97,572l37,0l75,99l4,0l75,-99l36,0l-94,136l-39,0z"/>
<glyph unicode="&#x161;" horiz-adv-x="405" d="M32,54C75,18 137,-12 208,-12C312,-12 370,51 370,123C370,217 288,242 213,270C156,291 100,312 100,367C100,411 134,454 208,454C257,454 291,435 323,411l24,31C312,471 261,492 210,492C110,492 55,434 55,364C55,282 135,253 208,227C263,207 325,181 325,121C325,70 286,26 211,26C142,26 99,53 58,87 z M191,572l39,0l94,136l-36,0l-75,-99l-4,0l-75,99l-37,0z"/>
<glyph unicode="&#x15F;" horiz-adv-x="405" d="M347,442C312,471 261,492 210,492C110,492 55,434 55,364C55,282 135,253 208,227C263,207 325,181 325,121C325,70 286,26 211,26C142,26 99,53 58,87l-26,-33C73,20 132,-9 199,-12l-33,-62C205,-84 233,-97 233,-127C233,-155 195,-170 140,-178l7,-30C211,-200 272,-175 272,-123C272,-83 244,-65 212,-54l22,43C322,-1 370,57 370,123C370,217 288,242 213,270C156,291 100,312 100,367C100,411 134,454 208,454C257,454 291,435 323,411z"/>
<glyph unicode="&#x219;" horiz-adv-x="405" d="M32,54C75,18 137,-12 208,-12C312,-12 370,51 370,123C370,217 288,242 213,270C156,291 100,312 100,367C100,411 134,454 208,454C257,454 291,435 323,411l24,31C312,471 261,492 210,492C110,492 55,434 55,364C55,282 135,253 208,227C263,207 325,181 325,121C325,70 286,26 211,26C142,26 99,53 58,87 z M192,-51l-13,-29C208,-86 236,-98 236,-129C236,-156 198,-171 143,-179l7,-30C214,-201 275,-176 275,-124C275,-83 247,-62 192,-51z"/>
<glyph unicode="&#x1E61;" horiz-adv-x="405" d="M32,54C75,18 137,-12 208,-12C312,-12 370,51 370,123C370,217 288,242 213,270C156,291 100,312 100,367C100,411 134,454 208,454C257,454 291,435 323,411l24,31C312,471 261,492 210,492C110,492 55,434 55,364C55,282 135,253 208,227C263,207 325,181 325,121C325,70 286,26 211,26C142,26 99,53 58,87 z M211,596C232,596 249,612 249,637C249,660 232,676 211,676C189,676 172,660 172,637C172,612 189,596 211,596z"/>
<glyph unicode="&#x1E63;" horiz-adv-x="405" d="M32,54C75,18 137,-12 208,-12C312,-12 370,51 370,123C370,217 288,242 213,270C156,291 100,312 100,367C100,411 134,454 208,454C257,454 291,435 323,411l24,31C312,471 261,492 210,492C110,492 55,434 55,364C55,282 135,253 208,227C263,207 325,181 325,121C325,70 286,26 211,26C142,26 99,53 58,87 z M218,-194C240,-194 256,-178 256,-153C256,-130 240,-114 218,-114C196,-114 180,-130 180,-153C180,-178 196,-194 218,-194z"/>
<glyph unicode="&#xDF;" horiz-adv-x="542" d="M92,0l44,0l0,517C136,636 186,691 262,691C325,691 357,649 357,591C357,501 259,470 259,373C259,229 468,264 468,125C468,74 434,26 367,26C324,26 291,41 253,72l-22,-33C269,8 315,-12 367,-12C452,-12 513,48 513,127C513,295 303,262 303,377C303,457 402,492 402,595C402,670 350,729 263,729C159,729 92,655 92,532z"/>
<glyph unicode="&#x165;" horiz-adv-x="312" d="M103,133C103,47 130,-12 223,-12C243,-12 273,-4 301,6l-12,36C272,34 247,27 229,27C163,27 148,68 148,129l0,313l139,0l0,38l-139,0l0,139l-38,0l-6,-139l-76,-4l0,-34l75,0 z M270,548l8,156l0,50l-37,0l2,-206z"/>
<glyph unicode="&#x163;" horiz-adv-x="312" d="M222,-12C222,-12 223,-12 223,-12C243,-12 273,-4 301,6l-12,36C272,34 247,27 229,27C163,27 148,68 148,129l0,313l139,0l0,38l-139,0l0,139l-38,0l-6,-139l-76,-4l0,-34l75,0l0,-309C103,59 123,5 188,-9l-34,-65C193,-84 221,-97 221,-127C221,-155 183,-170 128,-178l7,-30C199,-200 260,-175 260,-123C260,-83 233,-65 200,-54z"/>
<glyph unicode="&#x21B;" horiz-adv-x="312" d="M103,133C103,47 130,-12 223,-12C243,-12 273,-4 301,6l-12,36C272,34 247,27 229,27C163,27 148,68 148,129l0,313l139,0l0,38l-139,0l0,139l-38,0l-6,-139l-76,-4l0,-34l75,0 z M175,-51l-13,-29C191,-86 218,-98 218,-129C218,-156 181,-171 126,-179l7,-30C197,-201 258,-176 258,-124C258,-83 229,-62 175,-51z"/>
<glyph unicode="&#x1E6D;" horiz-adv-x="312" d="M103,133C103,47 130,-12 223,-12C243,-12 273,-4 301,6l-12,36C272,34 247,27 229,27C163,27 148,68 148,129l0,313l139,0l0,38l-139,0l0,139l-38,0l-6,-139l-76,-4l0,-34l75,0 z M201,-194C222,-194 239,-178 239,-153C239,-130 222,-114 201,-114C179,-114 163,-130 163,-153C163,-178 179,-194 201,-194z"/>
<glyph unicode="&#x1E6F;" horiz-adv-x="312" d="M103,133C103,47 130,-12 223,-12C243,-12 273,-4 301,6l-12,36C272,34 247,27 229,27C163,27 148,68 148,129l0,313l139,0l0,38l-139,0l0,139l-38,0l-6,-139l-76,-4l0,-34l75,0 z M313,-124l-228,0l0,-36l228,0z"/>
<glyph unicode="&#x1E97;" horiz-adv-x="312" d="M103,133C103,47 130,-12 223,-12C243,-12 273,-4 301,6l-12,36C272,34 247,27 229,27C163,27 148,68 148,129l0,313l139,0l0,38l-139,0l0,139l-38,0l-6,-139l-76,-4l0,-34l75,0 z M51,731C72,731 88,747 88,768C88,788 72,804 51,804C30,804 15,788 15,768C15,747 30,731 51,731 z M209,731C230,731 246,747 246,768C246,788 230,804 209,804C188,804 172,788 172,768C172,747 188,731 209,731z"/>
<glyph unicode="&#xF9;" horiz-adv-x="529" d="M85,172C85,48 131,-12 230,-12C296,-12 346,25 393,80l2,0l5,-80l37,0l0,480l-44,0l0,-354C337,58 295,28 238,28C161,28 129,76 129,178l0,302l-44,0 z M283,572l37,0l-91,136l-53,0z"/>
<glyph unicode="&#xFA;" horiz-adv-x="529" d="M85,172C85,48 131,-12 230,-12C296,-12 346,25 393,80l2,0l5,-80l37,0l0,480l-44,0l0,-354C337,58 295,28 238,28C161,28 129,76 129,178l0,302l-44,0 z M353,708l-52,0l-92,-136l38,0z"/>
<glyph unicode="&#xFB;" horiz-adv-x="529" d="M85,172C85,48 131,-12 230,-12C296,-12 346,25 393,80l2,0l5,-80l37,0l0,480l-44,0l0,-354C337,58 295,28 238,28C161,28 129,76 129,178l0,302l-44,0 z M151,572l37,0l75,99l4,0l75,-99l36,0l-94,136l-39,0z"/>
<glyph unicode="&#x169;" horiz-adv-x="529" d="M85,172C85,48 131,-12 230,-12C296,-12 346,25 393,80l2,0l5,-80l37,0l0,480l-44,0l0,-354C337,58 295,28 238,28C161,28 129,76 129,178l0,302l-44,0 z M141,581l30,0C176,616 187,636 209,636C245,636 271,581 320,581C368,581 386,628 389,670l-31,0C354,636 342,615 321,615C287,615 258,670 210,670C162,670 144,624 141,581z"/>
<glyph unicode="&#xFC;" horiz-adv-x="529" d="M85,172C85,48 131,-12 230,-12C296,-12 346,25 393,80l2,0l5,-80l37,0l0,480l-44,0l0,-354C337,58 295,28 238,28C161,28 129,76 129,178l0,302l-44,0 z M186,598C207,598 223,614 223,635C223,655 207,671 186,671C165,671 149,655 149,635C149,614 165,598 186,598 z M344,598C364,598 380,614 380,635C380,655 364,671 344,671C323,671 307,655 307,635C307,614 323,598 344,598z"/>
<glyph unicode="&#x16B;" horiz-adv-x="529" d="M85,172C85,48 131,-12 230,-12C296,-12 346,25 393,80l2,0l5,-80l37,0l0,480l-44,0l0,-354C337,58 295,28 238,28C161,28 129,76 129,178l0,302l-44,0 z M147,606l227,0l0,36l-227,0z"/>
<glyph unicode="&#x16D;" horiz-adv-x="529" d="M85,172C85,48 131,-12 230,-12C296,-12 346,25 393,80l2,0l5,-80l37,0l0,480l-44,0l0,-354C337,58 295,28 238,28C161,28 129,76 129,178l0,302l-44,0 z M265,576C346,576 378,644 384,695l-33,0C345,652 318,608 265,608C211,608 185,652 179,695l-33,0C152,644 183,576 265,576z"/>
<glyph unicode="&#x16F;" horiz-adv-x="529" d="M85,172C85,48 131,-12 230,-12C296,-12 346,25 393,80l2,0l5,-80l37,0l0,480l-44,0l0,-354C337,58 295,28 238,28C161,28 129,76 129,178l0,302l-44,0 z M265,539C312,539 347,574 347,625C347,677 312,712 265,712C218,712 183,677 183,625C183,574 218,539 265,539 z M265,565C236,565 212,589 212,625C212,662 236,686 265,686C294,686 317,662 317,625C317,589 294,565 265,565z"/>
<glyph unicode="&#x171;" horiz-adv-x="529" d="M85,172C85,48 131,-12 230,-12C296,-12 346,25 393,80l2,0l5,-80l37,0l0,480l-44,0l0,-354C337,58 295,28 238,28C161,28 129,76 129,178l0,302l-44,0 z M183,570l34,0l83,138l-46,0 z M316,570l34,0l83,138l-45,0z"/>
<glyph unicode="&#x1D4;" horiz-adv-x="529" d="M85,172C85,48 131,-12 230,-12C296,-12 346,25 393,80l2,0l5,-80l37,0l0,480l-44,0l0,-354C337,58 295,28 238,28C161,28 129,76 129,178l0,302l-44,0 z M245,572l39,0l94,136l-36,0l-75,-99l-4,0l-75,99l-37,0z"/>
<glyph unicode="&#x1D6;" horiz-adv-x="529" d="M85,172C85,48 131,-12 230,-12C296,-12 346,25 393,80l2,0l5,-80l37,0l0,480l-44,0l0,-354C337,58 295,28 238,28C161,28 129,76 129,178l0,302l-44,0 z M186,598C206,598 222,614 222,634C222,654 206,669 186,669C166,669 150,654 150,634C150,614 166,598 186,598 z M344,598C364,598 379,614 379,634C379,654 364,669 344,669C323,669 308,654 308,634C308,614 323,598 344,598 z M150,747l228,0l0,33l-228,0z"/>
<glyph unicode="&#x1D8;" horiz-adv-x="529" d="M85,172C85,48 131,-12 230,-12C296,-12 346,25 393,80l2,0l5,-80l37,0l0,480l-44,0l0,-354C337,58 295,28 238,28C161,28 129,76 129,178l0,302l-44,0 z M221,710l36,0l97,98l-52,0 z M186,598C206,598 222,614 222,634C222,654 206,669 186,669C166,669 150,654 150,634C150,614 166,598 186,598 z M344,598C364,598 379,614 379,634C379,654 364,669 344,669C323,669 308,654 308,634C308,614 323,598 344,598z"/>
<glyph unicode="&#x1DA;" horiz-adv-x="529" d="M85,172C85,48 131,-12 230,-12C296,-12 346,25 393,80l2,0l5,-80l37,0l0,480l-44,0l0,-354C337,58 295,28 238,28C161,28 129,76 129,178l0,302l-44,0 z M245,710l40,0l93,98l-39,0l-72,-67l-4,0l-73,67l-38,0 z M186,598C206,598 222,614 222,634C222,654 206,669 186,669C166,669 150,654 150,634C150,614 166,598 186,598 z M344,598C364,598 379,614 379,634C379,654 364,669 344,669C323,669 308,654 308,634C308,614 323,598 344,598z"/>
<glyph unicode="&#x1DC;" horiz-adv-x="529" d="M85,172C85,48 131,-12 230,-12C296,-12 346,25 393,80l2,0l5,-80l37,0l0,480l-44,0l0,-354C337,58 295,28 238,28C161,28 129,76 129,178l0,302l-44,0 z M228,808l-52,0l96,-98l36,0 z M344,598C364,598 379,614 379,634C379,654 364,669 344,669C323,669 308,654 308,634C308,614 323,598 344,598 z M186,598C206,598 222,614 222,634C222,654 206,669 186,669C166,669 150,654 150,634C150,614 166,598 186,598z"/>
<glyph unicode="&#x1EE5;" horiz-adv-x="529" d="M85,172C85,48 131,-12 230,-12C296,-12 346,25 393,80l2,0l5,-80l37,0l0,480l-44,0l0,-354C337,58 295,28 238,28C161,28 129,76 129,178l0,302l-44,0 z M283,-194C304,-194 321,-178 321,-153C321,-130 304,-114 283,-114C261,-114 245,-130 245,-153C245,-178 261,-194 283,-194z"/>
<glyph unicode="&#x1EE7;" horiz-adv-x="529" d="M85,172C85,48 131,-12 230,-12C296,-12 346,25 393,80l2,0l5,-80l37,0l0,480l-44,0l0,-354C337,58 295,28 238,28C161,28 129,76 129,178l0,302l-44,0 z M241,551C289,564 335,585 335,637C335,688 281,709 215,712l-4,-32C265,678 296,662 296,632C296,603 269,588 233,577z"/>
<glyph unicode="&#x173;" horiz-adv-x="529" d="M85,172C85,48 131,-12 230,-12C296,-12 346,25 393,80l2,0l5,-73C348,-31 313,-71 313,-122C313,-176 348,-203 394,-203C415,-203 444,-193 459,-180l-16,26C430,-164 417,-168 400,-168C375,-168 351,-150 351,-116C351,-73 382,-34 437,0l0,480l-44,0l0,-354C337,58 295,28 238,28C160,28 129,76 129,178l0,302l-44,0z"/>
<glyph unicode="&#x1B0;" horiz-adv-x="529" d="M472,588C481,575 486,562 486,549C486,508 452,487 400,480l-7,0l0,-354C337,58 295,28 238,28C161,28 129,76 129,178l0,302l-44,0l0,-308C85,48 131,-12 230,-12C296,-12 346,25 393,80l2,0l5,-80l37,0l0,457C477,468 526,492 526,552C526,572 519,590 507,608z"/>
<glyph unicode="&#x1EE9;" horiz-adv-x="529" d="M349,708l-52,0l-92,-136l38,0 z M472,588C481,575 486,562 486,549C486,508 452,487 400,480l-7,0l0,-354C337,58 295,28 238,28C161,28 129,76 129,178l0,302l-44,0l0,-308C85,48 131,-12 230,-12C296,-12 346,25 393,80l2,0l5,-80l37,0l0,457C477,468 526,492 526,552C526,572 519,590 507,608z"/>
<glyph unicode="&#x1EEB;" horiz-adv-x="529" d="M316,572l-91,136l-53,0l107,-136 z M472,588C481,575 486,562 486,549C486,508 452,487 400,480l-7,0l0,-354C337,58 295,28 238,28C161,28 129,76 129,178l0,302l-44,0l0,-308C85,48 131,-12 230,-12C296,-12 346,25 393,80l2,0l5,-80l37,0l0,457C477,468 526,492 526,552C526,572 519,590 507,608z"/>
<glyph unicode="&#x1EED;" horiz-adv-x="529" d="M237,551C285,564 331,585 331,637C331,688 277,709 211,712l-4,-32C261,678 292,662 292,632C292,603 265,588 229,577 z M472,588C481,575 486,562 486,549C486,508 452,487 400,480l-7,0l0,-354C337,58 295,28 238,28C161,28 129,76 129,178l0,302l-44,0l0,-308C85,48 131,-12 230,-12C296,-12 346,25 393,80l2,0l5,-80l37,0l0,457C477,468 526,492 526,552C526,572 519,590 507,608z"/>
<glyph unicode="&#x1EEF;" horiz-adv-x="529" d="M354,670C350,636 338,615 317,615C283,615 254,670 206,670C158,670 140,624 137,581l30,0C172,616 183,636 205,636C241,636 267,581 316,581C364,581 382,628 385,670 z M472,588C481,575 486,562 486,549C486,508 452,487 400,480l-7,0l0,-354C337,58 295,28 238,28C161,28 129,76 129,178l0,302l-44,0l0,-308C85,48 131,-12 230,-12C296,-12 346,25 393,80l2,0l5,-80l37,0l0,457C477,468 526,492 526,552C526,572 519,590 507,608z"/>
<glyph unicode="&#x1EF1;" horiz-adv-x="529" d="M280,-114C258,-114 242,-130 242,-153C242,-178 258,-194 280,-194C301,-194 318,-178 318,-153C318,-130 301,-114 280,-114 z M472,588C481,575 486,562 486,549C486,508 452,487 400,480l-7,0l0,-354C337,58 295,28 238,28C161,28 129,76 129,178l0,302l-44,0l0,-308C85,48 131,-12 230,-12C296,-12 346,25 393,80l2,0l5,-80l37,0l0,457C477,468 526,492 526,552C526,572 519,590 507,608z"/>
<glyph unicode="&#x1E81;" horiz-adv-x="685" d="M166,0l53,0l83,296C317,342 329,388 340,435l4,0C358,388 367,344 381,298l84,-298l58,0l138,480l-45,0l-85,-311C520,125 508,84 497,41l-4,0C481,84 469,125 457,169l-87,311l-53,0l-87,-311C218,125 206,84 195,41l-4,0C181,84 170,125 158,169l-86,311l-48,0 z M361,572l38,0l-92,136l-52,0z"/>
<glyph unicode="&#x1E83;" horiz-adv-x="685" d="M166,0l53,0l83,296C317,342 329,388 340,435l4,0C358,388 367,344 381,298l84,-298l58,0l138,480l-45,0l-85,-311C520,125 508,84 497,41l-4,0C481,84 469,125 457,169l-87,311l-53,0l-87,-311C218,125 206,84 195,41l-4,0C181,84 170,125 158,169l-86,311l-48,0 z M432,708l-53,0l-91,-136l37,0z"/>
<glyph unicode="&#x175;" horiz-adv-x="685" d="M166,0l53,0l83,296C317,342 329,388 340,435l4,0C358,388 367,344 381,298l84,-298l58,0l138,480l-45,0l-85,-311C520,125 508,84 497,41l-4,0C481,84 469,125 457,169l-87,311l-53,0l-87,-311C218,125 206,84 195,41l-4,0C181,84 170,125 158,169l-86,311l-48,0 z M230,572l36,0l75,99l4,0l75,-99l37,0l-94,136l-39,0z"/>
<glyph unicode="&#x1E85;" horiz-adv-x="685" d="M166,0l53,0l83,296C317,342 329,388 340,435l4,0C358,388 367,344 381,298l84,-298l58,0l138,480l-45,0l-85,-311C520,125 508,84 497,41l-4,0C481,84 469,125 457,169l-87,311l-53,0l-87,-311C218,125 206,84 195,41l-4,0C181,84 170,125 158,169l-86,311l-48,0 z M265,598C285,598 301,614 301,635C301,655 285,671 265,671C244,671 228,655 228,635C228,614 244,598 265,598 z M422,598C443,598 459,614 459,635C459,655 443,671 422,671C401,671 386,655 386,635C386,614 401,598 422,598z"/>
<glyph unicode="&#x1EF3;" horiz-adv-x="436" d="M34,-170l-10,-39C37,-215 55,-219 73,-219C159,-219 207,-140 234,-60l190,540l-45,0l-103,-302C263,138 247,86 232,44l-4,0C210,86 191,138 176,178l-116,302l-48,0l197,-489l-13,-42C172,-124 132,-178 73,-178C59,-178 44,-174 34,-170 z M247,572l38,0l-92,136l-52,0z"/>
<glyph unicode="&#xFD;" horiz-adv-x="436" d="M34,-170l-10,-39C37,-215 55,-219 73,-219C159,-219 207,-140 234,-60l190,540l-45,0l-103,-302C263,138 247,86 232,44l-4,0C210,86 191,138 176,178l-116,302l-48,0l197,-489l-13,-42C172,-124 132,-178 73,-178C59,-178 44,-174 34,-170 z M318,708l-53,0l-91,-136l37,0z"/>
<glyph unicode="&#x177;" horiz-adv-x="436" d="M34,-170l-10,-39C37,-215 55,-219 73,-219C159,-219 207,-140 234,-60l190,540l-45,0l-103,-302C263,138 247,86 232,44l-4,0C210,86 191,138 176,178l-116,302l-48,0l197,-489l-13,-42C172,-124 132,-178 73,-178C59,-178 44,-174 34,-170 z M116,572l36,0l75,99l4,0l75,-99l37,0l-94,136l-39,0z"/>
<glyph unicode="&#xFF;" horiz-adv-x="436" d="M34,-170l-10,-39C37,-215 55,-219 73,-219C159,-219 207,-140 234,-60l190,540l-45,0l-103,-302C263,138 247,86 232,44l-4,0C210,86 191,138 176,178l-116,302l-48,0l197,-489l-13,-42C172,-124 132,-178 73,-178C59,-178 44,-174 34,-170 z M150,598C171,598 187,614 187,635C187,655 171,671 150,671C130,671 114,655 114,635C114,614 130,598 150,598 z M308,598C329,598 345,614 345,635C345,655 329,671 308,671C287,671 271,655 271,635C271,614 287,598 308,598z"/>
<glyph unicode="&#x1E8F;" horiz-adv-x="436" d="M34,-170l-10,-39C37,-215 55,-219 73,-219C159,-219 207,-140 234,-60l190,540l-45,0l-103,-302C263,138 247,86 232,44l-4,0C210,86 191,138 176,178l-116,302l-48,0l197,-489l-13,-42C172,-124 132,-178 73,-178C59,-178 44,-174 34,-170 z M229,596C251,596 267,612 267,637C267,660 251,676 229,676C208,676 191,660 191,637C191,612 208,596 229,596z"/>
<glyph unicode="&#x1EF5;" horiz-adv-x="436" d="M34,-170l-10,-39C37,-215 55,-219 73,-219C159,-219 207,-140 234,-60l190,540l-45,0l-103,-302C263,138 247,86 232,44l-4,0C210,86 191,138 176,178l-116,302l-48,0l197,-489l-13,-42C172,-124 132,-178 73,-178C59,-178 44,-174 34,-170 z M360,-193C382,-193 398,-177 398,-152C398,-129 382,-113 360,-113C338,-113 322,-129 322,-152C322,-177 338,-193 360,-193z"/>
<glyph unicode="&#x1EF7;" horiz-adv-x="436" d="M34,-170l-10,-39C37,-215 55,-219 73,-219C159,-219 207,-140 234,-60l190,540l-45,0l-103,-302C263,138 247,86 232,44l-4,0C210,86 191,138 176,178l-116,302l-48,0l197,-489l-13,-42C172,-124 132,-178 73,-178C59,-178 44,-174 34,-170 z M206,551C253,564 300,585 300,637C300,688 245,709 179,712l-4,-32C230,678 261,662 261,632C261,603 234,588 197,577z"/>
<glyph unicode="&#x1EF9;" horiz-adv-x="436" d="M34,-170l-10,-39C37,-215 55,-219 73,-219C159,-219 207,-140 234,-60l190,540l-45,0l-103,-302C263,138 247,86 232,44l-4,0C210,86 191,138 176,178l-116,302l-48,0l197,-489l-13,-42C172,-124 132,-178 73,-178C59,-178 44,-174 34,-170 z M105,581l31,0C140,616 152,636 173,636C209,636 236,581 284,581C332,581 350,628 353,670l-30,0C318,636 307,615 285,615C251,615 223,670 174,670C127,670 108,624 105,581z"/>
<glyph unicode="&#x17A;" horiz-adv-x="404" d="M27,0l351,0l0,39l-293,0l283,418l0,23l-310,0l0,-38l253,0l-284,-418 z M307,708l-52,0l-92,-136l38,0z"/>
<glyph unicode="&#x17E;" horiz-adv-x="404" d="M27,0l351,0l0,39l-293,0l283,418l0,23l-310,0l0,-38l253,0l-284,-418 z M199,572l39,0l94,136l-36,0l-75,-99l-4,0l-75,99l-37,0z"/>
<glyph unicode="&#x17C;" horiz-adv-x="404" d="M27,0l351,0l0,39l-293,0l283,418l0,23l-310,0l0,-38l253,0l-284,-418 z M219,596C240,596 257,612 257,637C257,660 240,676 219,676C197,676 181,660 181,637C181,612 197,596 219,596z"/>
<glyph unicode="&#x1E93;" horiz-adv-x="404" d="M27,0l351,0l0,39l-293,0l283,418l0,23l-310,0l0,-38l253,0l-284,-418 z M218,-194C239,-194 256,-178 256,-153C256,-130 239,-114 218,-114C196,-114 180,-130 180,-153C180,-178 196,-194 218,-194z"/>
<glyph unicode="&#xF0;" horiz-adv-x="535" d="M267,27C178,27 104,106 104,219C104,318 161,404 269,404C319,404 371,388 422,313C424,293 425,273 425,251C425,126 376,27 267,27 z M468,676l-15,27l-142,-74C269,667 222,698 173,724l-22,-30C195,669 237,642 274,610l-132,-68l15,-28l142,74C355,533 397,464 415,366C376,417 324,442 267,442C144,442 60,351 60,219C60,75 160,-12 267,-12C387,-12 470,92 470,252C470,415 414,526 335,607z"/>
<glyph unicode="&#xFE;" horiz-adv-x="544" d="M136,-42l0,88C186,9 234,-12 280,-12C393,-12 492,84 492,247C492,396 428,492 299,492C240,492 184,458 136,421l0,91l0,207l-44,0l0,-936l44,0 z M136,89l0,285C194,425 245,453 293,453C403,453 445,365 445,247C445,117 375,27 278,27C241,27 191,44 136,89z"/>
<glyph unicode="&#x237;" horiz-adv-x="229" d="M92,-86C92,-147 82,-191 28,-191C9,-191 -10,-185 -22,-181l-11,-36C-18,-223 6,-229 29,-229C103,-229 137,-183 137,-89l0,569l-45,0z"/>
<glyph unicode="&#x251;" horiz-adv-x="544" d="M99,239C99,360 172,453 268,453C315,453 357,436 408,391l0,-285C357,55 310,27 257,27C155,27 99,112 99,239 z M52,239C52,77 130,-12 251,-12C315,-12 368,23 407,62l3,0l4,-62l38,0l0,480l-39,0l-3,-46l-2,0C363,471 323,492 266,492C151,492 52,394 52,239z"/>
<glyph unicode="&#x259;" horiz-adv-x="483" d="M38,219C38,69 119,-12 231,-12C346,-12 431,84 431,241C431,401 345,492 227,492C156,492 108,469 68,441l18,-33C125,435 167,454 222,454C325,454 384,369 386,255l-346,0C38,243 38,231 38,219 z M79,221l307,0C377,100 320,26 230,26C142,26 79,87 79,221z"/>
<glyph unicode="&#x261;" horiz-adv-x="545" d="M110,-142l-20,-35C137,-209 194,-229 258,-229C382,-229 452,-156 452,-42l0,522l-39,0l-4,-44l-3,0C363,471 323,492 266,492C152,492 53,398 53,246C53,88 131,0 251,0C315,0 369,35 409,74l-1,-109C408,-132 357,-191 258,-191C208,-191 158,-177 110,-142 z M258,39C156,39 99,122 99,246C99,363 173,453 268,453C315,453 358,436 408,391l0,-273C358,67 311,39 258,39z"/>
<glyph unicode="&#xE003;" horiz-adv-x="526" d="M554,715C532,725 506,731 484,731C408,731 365,682 365,587l0,-107l-222,0l0,86C143,640 172,683 229,683C252,683 274,679 298,667l12,36C284,715 255,721 229,721C147,721 99,669 99,569l0,-89l-65,-4l0,-34l65,0l0,-442l44,0l0,442l222,0l0,-442l44,0l0,442l111,0l0,38l-111,0l0,104C409,653 433,693 484,693C502,693 522,689 542,679z"/>
<glyph unicode="&#xFB01;" horiz-adv-x="509" d="M99,480l-66,-4l0,-34l66,0l0,-442l44,0l0,442l111,0l0,38l-111,0l0,104C143,653 167,693 218,693C236,693 256,689 276,679l12,36C266,725 240,731 218,731C142,731 99,682 99,587 z M373,0l44,0l0,480l-44,0 z M396,675C374,675 356,660 356,635C356,612 374,596 396,596C418,596 436,612 436,635C436,660 418,675 396,675z"/>
<glyph unicode="&#xFB02;" horiz-adv-x="500" d="M99,480l-66,-4l0,-34l66,0l0,-442l44,0l0,442l111,0l0,38l-111,0l0,104C143,653 167,693 218,693C236,693 256,689 276,679l12,36C266,725 240,731 218,731C142,731 99,682 99,587 z M438,29C428,27 424,27 420,27C408,27 399,37 399,58l0,661l-44,0l0,-655C355,12 375,-12 414,-12C428,-12 436,-10 445,-7z"/>
<glyph unicode="&#xE004;" horiz-adv-x="539" d="M516,42C499,34 474,27 456,27C390,27 374,68 374,129l0,313l140,0l0,38l-140,0l0,139l-37,0l-6,-139l-188,0l0,104C143,653 167,693 218,693C236,693 256,689 276,679l12,36C266,725 240,731 218,731C142,731 99,682 99,587l0,-107l-66,-4l0,-34l66,0l0,-442l44,0l0,442l187,0l0,-309C330,47 357,-12 449,-12C469,-12 500,-4 528,6z"/>
<glyph unicode="&#xE005;" horiz-adv-x="313" d="M43,0l225,0l0,40l-89,0l0,579l89,0l0,40l-225,0l0,-40l90,0l0,-579l-90,0z"/>
<glyph unicode="&#xE006;" horiz-adv-x="313" d="M43,0l225,0l0,40l-89,0l0,579l89,0l0,40l-225,0l0,-40l90,0l0,-579l-90,0 z M153,709l41,0l-92,106l-58,0z"/>
<glyph unicode="&#xE007;" horiz-adv-x="313" d="M43,0l225,0l0,40l-89,0l0,579l89,0l0,40l-225,0l0,-40l90,0l0,-579l-90,0 z M270,815l-58,0l-92,-106l40,0z"/>
<glyph unicode="&#xE008;" horiz-adv-x="313" d="M43,0l225,0l0,40l-89,0l0,579l89,0l0,40l-225,0l0,-40l90,0l0,-579l-90,0 z M80,709l75,72l4,0l75,-72l40,0l-96,106l-42,0l-96,-106z"/>
<glyph unicode="&#xE009;" horiz-adv-x="313" d="M43,0l225,0l0,40l-89,0l0,579l89,0l0,40l-225,0l0,-40l90,0l0,-579l-90,0 z M215,716C260,716 283,764 286,808l-28,0C254,774 238,752 216,752C176,752 150,808 98,808C53,808 30,761 27,716l29,0C60,750 76,773 97,773C138,773 163,716 215,716z"/>
<glyph unicode="&#xE00A;" horiz-adv-x="313" d="M43,0l225,0l0,40l-89,0l0,579l89,0l0,40l-225,0l0,-40l90,0l0,-579l-90,0 z M78,725C99,725 115,739 115,761C115,784 99,798 78,798C57,798 41,784 41,761C41,739 57,725 78,725 z M236,725C256,725 272,739 272,761C272,784 256,798 236,798C215,798 199,784 199,761C199,739 215,725 236,725z"/>
<glyph unicode="&#xE00B;" horiz-adv-x="313" d="M43,0l225,0l0,40l-89,0l0,579l89,0l0,40l-225,0l0,-40l90,0l0,-579l-90,0 z M43,734l228,0l0,36l-228,0z"/>
<glyph unicode="&#xE00C;" horiz-adv-x="313" d="M43,0l225,0l0,40l-89,0l0,579l89,0l0,40l-225,0l0,-40l90,0l0,-579l-90,0 z M157,721C179,721 197,737 197,762C197,785 179,801 157,801C135,801 116,785 116,762C116,737 135,721 157,721z"/>
<glyph unicode="&#xE00D;" horiz-adv-x="313" d="M43,0l225,0l0,40l-89,0l0,579l89,0l0,40l-225,0l0,-40l90,0l0,-579l-90,0 z M234,815l-75,-72l-4,0l-75,72l-40,0l96,-106l42,0l96,106z"/>
<glyph unicode="&#xE00E;" horiz-adv-x="313" d="M43,0l225,0l0,40l-89,0l0,579l89,0l0,40l-225,0l0,-40l90,0l0,-579l-90,0 z M133,702C181,715 227,737 227,789C227,839 173,861 107,863l-4,-32C157,829 188,814 188,783C188,755 161,740 125,729z"/>
<glyph unicode="&#xE00F;" horiz-adv-x="313" d="M43,0l225,0l0,40l-89,0l0,579l89,0l0,40l-225,0l0,-40l90,0l0,-579l-90,0 z M159,-194C180,-194 197,-178 197,-153C197,-130 180,-114 159,-114C137,-114 120,-130 120,-153C120,-178 137,-194 159,-194z"/>
<glyph unicode="&#xE010;" horiz-adv-x="313" d="M43,0l100,0C109,-29 78,-73 78,-123C78,-178 115,-205 162,-205C184,-205 212,-194 227,-181l-16,27C197,-164 185,-168 168,-168C142,-168 117,-151 117,-116C117,-75 142,-32 185,0l83,0l0,40l-89,0l0,579l89,0l0,40l-225,0l0,-40l90,0l0,-579l-90,0z"/>
<glyph unicode="&#xE011;" horiz-adv-x="544" d="M99,239C99,360 172,453 268,453C315,453 357,436 408,391l0,-285C357,55 310,27 257,27C155,27 99,112 99,239 z M52,239C52,77 130,-12 251,-12C315,-12 368,23 407,62l3,0l4,-62l38,0l0,480l-39,0l-3,-46l-2,0C363,471 323,492 266,492C151,492 52,394 52,239z"/>
<glyph unicode="&#xE012;" horiz-adv-x="544" d="M99,239C99,360 172,453 268,453C315,453 357,436 408,391l0,-285C357,55 310,27 257,27C155,27 99,112 99,239 z M52,239C52,77 130,-12 251,-12C315,-12 368,23 407,62l3,0l4,-62l38,0l0,480l-39,0l-3,-46l-2,0C363,471 323,492 266,492C151,492 52,394 52,239 z M291,572l37,0l-91,136l-53,0z"/>
<glyph unicode="&#xE013;" horiz-adv-x="544" d="M99,239C99,360 172,453 268,453C315,453 357,436 408,391l0,-285C357,55 310,27 257,27C155,27 99,112 99,239 z M52,239C52,77 130,-12 251,-12C315,-12 368,23 407,62l3,0l4,-62l38,0l0,480l-39,0l-3,-46l-2,0C363,471 323,492 266,492C151,492 52,394 52,239 z M361,708l-52,0l-92,-136l38,0z"/>
<glyph unicode="&#xE014;" horiz-adv-x="544" d="M99,239C99,360 172,453 268,453C315,453 357,436 408,391l0,-285C357,55 310,27 257,27C155,27 99,112 99,239 z M52,239C52,77 130,-12 251,-12C315,-12 368,23 407,62l3,0l4,-62l38,0l0,480l-39,0l-3,-46l-2,0C363,471 323,492 266,492C151,492 52,394 52,239 z M159,572l37,0l75,99l4,0l75,-99l36,0l-94,136l-39,0z"/>
<glyph unicode="&#xE015;" horiz-adv-x="544" d="M99,239C99,360 172,453 268,453C315,453 357,436 408,391l0,-285C357,55 310,27 257,27C155,27 99,112 99,239 z M52,239C52,77 130,-12 251,-12C315,-12 368,23 407,62l3,0l4,-62l38,0l0,480l-39,0l-3,-46l-2,0C363,471 323,492 266,492C151,492 52,394 52,239 z M149,581l30,0C184,616 195,636 217,636C253,636 279,581 328,581C375,581 394,628 397,670l-31,0C362,636 350,615 329,615C294,615 266,670 218,670C170,670 152,624 149,581z"/>
<glyph unicode="&#xE016;" horiz-adv-x="544" d="M99,239C99,360 172,453 268,453C315,453 357,436 408,391l0,-285C357,55 310,27 257,27C155,27 99,112 99,239 z M52,239C52,77 130,-12 251,-12C315,-12 368,23 407,62l3,0l4,-62l38,0l0,480l-39,0l-3,-46l-2,0C363,471 323,492 266,492C151,492 52,394 52,239 z M194,598C215,598 231,614 231,635C231,655 215,671 194,671C173,671 157,655 157,635C157,614 173,598 194,598 z M352,598C372,598 388,614 388,635C388,655 372,671 352,671C331,671 315,655 315,635C315,614 331,598 352,598z"/>
<glyph unicode="&#xE017;" horiz-adv-x="544" d="M99,239C99,360 172,453 268,453C315,453 357,436 408,391l0,-285C357,55 310,27 257,27C155,27 99,112 99,239 z M52,239C52,77 130,-12 251,-12C315,-12 368,23 407,62l3,0l4,-62l38,0l0,480l-39,0l-3,-46l-2,0C363,471 323,492 266,492C151,492 52,394 52,239 z M159,606l227,0l0,36l-227,0z"/>
<glyph unicode="&#xE018;" horiz-adv-x="544" d="M99,239C99,360 172,453 268,453C315,453 357,436 408,391l0,-285C357,55 310,27 257,27C155,27 99,112 99,239 z M52,239C52,77 130,-12 251,-12C315,-12 368,23 407,62l3,0l4,-62l38,0l0,480l-39,0l-3,-46l-2,0C363,471 323,492 266,492C151,492 52,394 52,239 z M273,576C354,576 386,644 392,695l-33,0C353,652 326,608 273,608C219,608 193,652 187,695l-33,0C160,644 191,576 273,576z"/>
<glyph unicode="&#xE019;" horiz-adv-x="544" d="M99,239C99,360 172,453 268,453C315,453 357,436 408,391l0,-285C357,55 310,27 257,27C155,27 99,112 99,239 z M52,239C52,77 130,-12 251,-12C315,-12 368,23 407,62l3,0l4,-62l38,0l0,480l-39,0l-3,-46l-2,0C363,471 323,492 266,492C151,492 52,394 52,239 z M273,539C320,539 355,574 355,625C355,677 320,712 273,712C226,712 190,677 190,625C190,574 226,539 273,539 z M273,565C244,565 220,589 220,625C220,662 244,686 273,686C302,686 325,662 325,625C325,589 302,565 273,565z"/>
<glyph unicode="&#xE01A;" horiz-adv-x="544" d="M99,239C99,360 172,453 268,453C315,453 357,436 408,391l0,-285C357,55 310,27 257,27C155,27 99,112 99,239 z M52,239C52,77 130,-12 251,-12C315,-12 368,23 407,62l3,0l4,-62l38,0l0,480l-39,0l-3,-46l-2,0C363,471 323,492 266,492C151,492 52,394 52,239 z M253,572l39,0l94,136l-36,0l-75,-99l-4,0l-75,99l-37,0z"/>
<glyph unicode="&#xE01B;" horiz-adv-x="544" d="M99,239C99,360 172,453 268,453C315,453 357,436 408,391l0,-285C357,55 310,27 257,27C155,27 99,112 99,239 z M52,239C52,77 130,-12 251,-12C315,-12 368,23 407,62l3,0l4,-62l38,0l0,480l-39,0l-3,-46l-2,0C363,471 323,492 266,492C151,492 52,394 52,239 z M274,-194C295,-194 312,-178 312,-153C312,-130 295,-114 274,-114C252,-114 236,-130 236,-153C236,-178 252,-194 274,-194z"/>
<glyph unicode="&#xE01C;" horiz-adv-x="544" d="M99,239C99,360 172,453 268,453C315,453 357,436 408,391l0,-285C357,55 310,27 257,27C155,27 99,112 99,239 z M52,239C52,77 130,-12 251,-12C315,-12 368,23 407,62l3,0l4,-62l38,0l0,480l-39,0l-3,-46l-2,0C363,471 323,492 266,492C151,492 52,394 52,239 z M249,551C297,564 343,585 343,637C343,688 289,709 223,712l-4,-32C273,678 304,662 304,632C304,603 277,588 241,577z"/>
<glyph unicode="&#xE01D;" horiz-adv-x="544" d="M99,239C99,360 172,453 268,453C315,453 357,436 408,391l0,-285C357,55 310,27 257,27C155,27 99,112 99,239 z M52,239C52,77 130,-12 251,-12C315,-12 368,23 407,62l3,0l4,-62l38,0l0,480l-39,0l-3,-46l-2,0C363,471 323,492 266,492C151,492 52,394 52,239 z M170,572l35,0l66,78l4,0l65,-78l36,0l-84,114l-39,0 z M351,637l33,0l90,111l-46,0z"/>
<glyph unicode="&#xE01E;" horiz-adv-x="544" d="M99,239C99,360 172,453 268,453C315,453 357,436 408,391l0,-285C357,55 310,27 257,27C155,27 99,112 99,239 z M52,239C52,77 130,-12 251,-12C315,-12 368,23 407,62l3,0l4,-62l38,0l0,480l-39,0l-3,-46l-2,0C363,471 323,492 266,492C151,492 52,394 52,239 z M170,572l35,0l66,78l4,0l65,-78l36,0l-84,114l-39,0 z M369,748l-47,0l91,-111l32,0z"/>
<glyph unicode="&#xE01F;" horiz-adv-x="544" d="M99,239C99,360 172,453 268,453C315,453 357,436 408,391l0,-285C357,55 310,27 257,27C155,27 99,112 99,239 z M52,239C52,77 130,-12 251,-12C315,-12 368,23 407,62l3,0l4,-62l38,0l0,480l-39,0l-3,-46l-2,0C363,471 323,492 266,492C151,492 52,394 52,239 z M170,572l35,0l66,78l4,0l65,-78l36,0l-84,114l-39,0 z M376,628C413,640 455,658 455,704C455,752 408,772 349,774l-3,-29C394,743 417,729 417,699C417,676 396,663 367,653z"/>
<glyph unicode="&#xE020;" horiz-adv-x="544" d="M99,239C99,360 172,453 268,453C315,453 357,436 408,391l0,-285C357,55 310,27 257,27C155,27 99,112 99,239 z M52,239C52,77 130,-12 251,-12C315,-12 368,23 407,62l3,0l4,-62l38,0l0,480l-39,0l-3,-46l-2,0C363,471 323,492 266,492C151,492 52,394 52,239 z M162,570l36,0l73,69l4,0l73,-69l36,0l-91,100l-41,0 z M180,706C184,736 200,751 221,751C256,751 275,706 323,706C370,706 391,745 394,783l-29,0C361,753 346,738 324,738C289,738 271,783 222,783C175,783 154,744 151,706z"/>
<glyph unicode="&#xE021;" horiz-adv-x="544" d="M99,239C99,360 172,453 268,453C315,453 357,436 408,391l0,-285C357,55 310,27 257,27C155,27 99,112 99,239 z M52,239C52,77 130,-12 251,-12C315,-12 368,23 407,62l3,0l4,-62l38,0l0,480l-39,0l-3,-46l-2,0C363,471 323,492 266,492C151,492 52,394 52,239 z M159,572l37,0l75,99l4,0l75,-99l36,0l-94,136l-39,0 z M274,-194C295,-194 312,-178 312,-153C312,-130 295,-114 274,-114C252,-114 236,-130 236,-153C236,-178 252,-194 274,-194z"/>
<glyph unicode="&#xE022;" horiz-adv-x="544" d="M99,239C99,360 172,453 268,453C315,453 357,436 408,391l0,-285C357,55 310,27 257,27C155,27 99,112 99,239 z M52,239C52,77 130,-12 251,-12C315,-12 368,23 407,62l3,0l4,-62l38,0l0,480l-39,0l-3,-46l-2,0C363,471 323,492 266,492C151,492 52,394 52,239 z M241,667l33,0l87,110l-47,0 z M273,576C354,576 386,644 392,695l-31,0C355,651 327,607 273,607C218,607 191,651 185,695l-31,0C160,644 191,576 273,576z"/>
<glyph unicode="&#xE023;" horiz-adv-x="544" d="M99,239C99,360 172,453 268,453C315,453 357,436 408,391l0,-285C357,55 310,27 257,27C155,27 99,112 99,239 z M52,239C52,77 130,-12 251,-12C315,-12 368,23 407,62l3,0l4,-62l38,0l0,480l-39,0l-3,-46l-2,0C363,471 323,492 266,492C151,492 52,394 52,239 z M231,777l-46,0l86,-110l34,0 z M273,576C354,576 386,644 392,695l-31,0C355,651 327,607 273,607C218,607 191,651 185,695l-31,0C160,644 191,576 273,576z"/>
<glyph unicode="&#xE024;" horiz-adv-x="544" d="M99,239C99,360 172,453 268,453C315,453 357,436 408,391l0,-285C357,55 310,27 257,27C155,27 99,112 99,239 z M52,239C52,77 130,-12 251,-12C315,-12 368,23 407,62l3,0l4,-62l38,0l0,480l-39,0l-3,-46l-2,0C363,471 323,492 266,492C151,492 52,394 52,239 z M273,576C354,576 386,644 392,695l-31,0C355,651 327,607 273,607C218,607 191,651 185,695l-31,0C160,644 191,576 273,576 z M251,675C289,687 330,705 330,752C330,799 283,819 224,821l-3,-29C269,790 292,777 292,746C292,723 271,710 243,701z"/>
<glyph unicode="&#xE025;" horiz-adv-x="544" d="M99,239C99,360 172,453 268,453C315,453 357,436 408,391l0,-285C357,55 310,27 257,27C155,27 99,112 99,239 z M52,239C52,77 130,-12 251,-12C315,-12 368,23 407,62l3,0l4,-62l38,0l0,480l-39,0l-3,-46l-2,0C363,471 323,492 266,492C151,492 52,394 52,239 z M273,576C354,576 384,628 390,675l-31,0C353,640 326,607 273,607C220,607 193,640 187,675l-31,0C161,628 191,576 273,576 z M151,706l29,0C184,736 200,751 221,751C256,751 275,706 323,706C370,706 391,745 394,783l-29,0C361,753 346,738 324,738C289,738 271,783 222,783C175,783 154,744 151,706z"/>
<glyph unicode="&#xE026;" horiz-adv-x="544" d="M99,239C99,360 172,453 268,453C315,453 357,436 408,391l0,-285C357,55 310,27 257,27C155,27 99,112 99,239 z M52,239C52,77 130,-12 251,-12C315,-12 368,23 407,62l3,0l4,-62l38,0l0,480l-39,0l-3,-46l-2,0C363,471 323,492 266,492C151,492 52,394 52,239 z M273,576C354,576 386,644 392,695l-33,0C353,652 326,608 273,608C219,608 193,652 187,695l-33,0C160,644 191,576 273,576 z M274,-194C295,-194 312,-178 312,-153C312,-130 295,-114 274,-114C252,-114 236,-130 236,-153C236,-178 252,-194 274,-194z"/>
<glyph unicode="&#xE027;" horiz-adv-x="544" d="M99,239C99,360 172,453 268,453C315,453 357,436 408,391l0,-285C357,55 310,27 257,27C155,27 99,112 99,239 z M52,239C52,77 130,-12 251,-12C315,-12 368,23 407,62l3,0l5,-55C362,-31 327,-71 327,-122C327,-176 363,-203 409,-203C430,-203 458,-193 474,-180l-16,26C444,-164 432,-168 415,-168C389,-168 366,-150 366,-116C366,-73 396,-34 452,0l0,480l-39,0l-3,-46l-2,0C363,471 323,492 266,492C151,492 52,394 52,239z"/>
<glyph unicode="&#xE028;" horiz-adv-x="545" d="M110,-142l-20,-35C137,-209 194,-229 258,-229C382,-229 452,-156 452,-42l0,522l-39,0l-4,-44l-3,0C363,471 323,492 266,492C152,492 53,398 53,246C53,88 131,0 251,0C315,0 369,35 409,74l-1,-109C408,-132 357,-191 258,-191C208,-191 158,-177 110,-142 z M258,39C156,39 99,122 99,246C99,363 173,453 268,453C315,453 358,436 408,391l0,-273C358,67 311,39 258,39z"/>
<glyph unicode="&#xE029;" horiz-adv-x="545" d="M110,-142l-20,-35C137,-209 194,-229 258,-229C382,-229 452,-156 452,-42l0,522l-39,0l-4,-44l-3,0C363,471 323,492 266,492C152,492 53,398 53,246C53,88 131,0 251,0C315,0 369,35 409,74l-1,-109C408,-132 357,-191 258,-191C208,-191 158,-177 110,-142 z M258,39C156,39 99,122 99,246C99,363 173,453 268,453C315,453 358,436 408,391l0,-273C358,67 311,39 258,39 z M166,572l37,0l75,99l4,0l75,-99l37,0l-95,136l-39,0z"/>
<glyph unicode="&#xE02A;" horiz-adv-x="545" d="M110,-142l-20,-35C137,-209 194,-229 258,-229C382,-229 452,-156 452,-42l0,522l-39,0l-4,-44l-3,0C363,471 323,492 266,492C152,492 53,398 53,246C53,88 131,0 251,0C315,0 369,35 409,74l-1,-109C408,-132 357,-191 258,-191C208,-191 158,-177 110,-142 z M258,39C156,39 99,122 99,246C99,363 173,453 268,453C315,453 358,436 408,391l0,-273C358,67 311,39 258,39 z M280,576C362,576 393,644 399,695l-33,0C360,652 333,608 280,608C226,608 200,652 194,695l-33,0C167,644 198,576 280,576z"/>
<glyph unicode="&#xE02B;" horiz-adv-x="545" d="M110,-142l-20,-35C137,-209 194,-229 258,-229C382,-229 452,-156 452,-42l0,522l-39,0l-4,-44l-3,0C363,471 323,492 266,492C152,492 53,398 53,246C53,88 131,0 251,0C315,0 369,35 409,74l-1,-109C408,-132 357,-191 258,-191C208,-191 158,-177 110,-142 z M258,39C156,39 99,122 99,246C99,363 173,453 268,453C315,453 358,436 408,391l0,-273C358,67 311,39 258,39 z M280,596C302,596 318,612 318,637C318,660 302,676 280,676C258,676 242,660 242,637C242,612 258,596 280,596z"/>
<glyph unicode="&#xE02C;" horiz-adv-x="545" d="M110,-142l-20,-35C137,-209 194,-229 258,-229C382,-229 452,-156 452,-42l0,522l-39,0l-4,-44l-3,0C363,471 323,492 266,492C152,492 53,398 53,246C53,88 131,0 251,0C315,0 369,35 409,74l-1,-109C408,-132 357,-191 258,-191C208,-191 158,-177 110,-142 z M258,39C156,39 99,122 99,246C99,363 173,453 268,453C315,453 358,436 408,391l0,-273C358,67 311,39 258,39 z M304,539l12,29C288,574 260,586 260,617C260,644 297,659 352,667l-6,30C281,689 220,664 220,612C220,571 249,550 304,539z"/>
<glyph unicode="&#xE02D;" horiz-adv-x="545" d="M110,-142l-20,-35C137,-209 194,-229 258,-229C382,-229 452,-156 452,-42l0,522l-39,0l-4,-44l-3,0C363,471 323,492 266,492C152,492 53,398 53,246C53,88 131,0 251,0C315,0 369,35 409,74l-1,-109C408,-132 357,-191 258,-191C208,-191 158,-177 110,-142 z M258,39C156,39 99,122 99,246C99,363 173,453 268,453C315,453 358,436 408,391l0,-273C358,67 311,39 258,39 z M260,572l39,0l95,136l-37,0l-75,-99l-4,0l-75,99l-37,0z"/>
<glyph unicode="&#xE02E;" horiz-adv-x="545" d="M110,-142l-20,-35C137,-209 194,-229 258,-229C382,-229 452,-156 452,-42l0,522l-39,0l-4,-44l-3,0C363,471 323,492 266,492C152,492 53,398 53,246C53,88 131,0 251,0C315,0 369,35 409,74l-1,-109C408,-132 357,-191 258,-191C208,-191 158,-177 110,-142 z M258,39C156,39 99,122 99,246C99,363 173,453 268,453C315,453 358,436 408,391l0,-273C358,67 311,39 258,39 z M166,606l227,0l0,36l-227,0z"/>
<glyph unicode="&#xE02F;" horiz-adv-x="545" d="M110,-142l-20,-35C137,-209 194,-229 258,-229C382,-229 452,-156 452,-42l0,522l-39,0l-4,-44l-3,0C363,471 323,492 266,492C152,492 53,398 53,246C53,88 131,0 251,0C315,0 369,35 409,74l-1,-109C408,-132 357,-191 258,-191C208,-191 158,-177 110,-142 z M258,39C156,39 99,122 99,246C99,363 173,453 268,453C315,453 358,436 408,391l0,-273C358,67 311,39 258,39 z M156,581l30,0C191,616 203,636 224,636C260,636 286,581 335,581C383,581 401,628 404,670l-30,0C369,636 357,615 336,615C302,615 274,670 225,670C177,670 159,624 156,581z"/>
<glyph unicode="&#xE030;" horiz-adv-x="229" d="M92,0l44,0l0,719l-44,0z"/>
<glyph unicode="&#xE031;" horiz-adv-x="229" d="M92,0l44,0l0,719l-44,0 z M221,866l-57,0l-93,-106l41,0z"/>
<glyph unicode="&#xE032;" horiz-adv-x="234" d="M92,0l44,0l0,719l-44,0 z M228,548l9,156l0,50l-38,0l2,-206z"/>
<glyph unicode="&#xE033;" horiz-adv-x="308" d="M92,0l44,0l0,719l-44,0 z M226,323C226,295 246,278 268,278C290,278 311,295 311,323C311,352 290,369 268,369C246,369 226,352 226,323z"/>
<glyph unicode="&#xE034;" horiz-adv-x="229" d="M92,0l44,0l0,719l-44,0 z M89,-51l-12,-29C105,-86 133,-98 133,-129C133,-156 95,-171 40,-179l7,-30C111,-201 172,-176 172,-124C172,-83 144,-62 89,-51z"/>
<glyph unicode="&#xE035;" horiz-adv-x="229" d="M92,0l44,0l0,719l-44,0 z M115,-194C137,-194 153,-178 153,-153C153,-130 137,-114 115,-114C93,-114 77,-130 77,-153C77,-178 93,-194 115,-194z"/>
<glyph unicode="&#xE036;" horiz-adv-x="229" d="M92,0l44,0l0,719l-44,0 z M1,832l227,0l0,36l-227,0 z M115,-194C137,-194 153,-178 153,-153C153,-130 137,-114 115,-114C93,-114 77,-130 77,-153C77,-178 93,-194 115,-194z"/>
<glyph unicode="&#xE037;" horiz-adv-x="229" d="M92,0l44,0l0,719l-44,0 z M228,-124l-229,0l0,-36l229,0z"/>
<glyph unicode="&#xE038;" horiz-adv-x="231" d="M211,480l-75,-49l0,288l-44,0l0,-314l-64,-42l0,-42l64,42l0,-363l44,0l0,388l75,49z"/>
<glyph unicode="&#xE039;" horiz-adv-x="509" d="M99,480l-66,-4l0,-34l66,0l0,-442l44,0l0,442l111,0l0,38l-111,0l0,104C143,653 167,693 218,693C236,693 256,689 276,679l12,36C266,725 240,731 218,731C142,731 99,682 99,587 z M373,719l0,-719l44,0l0,719z"/>
<glyph unicode="&amp;" horiz-adv-x="575" d="M230,26C149,26 81,83 81,170C81,235 130,283 189,329C236,244 306,161 376,97C335,55 284,26 230,26 z M168,526C168,586 203,635 261,635C314,635 333,592 333,549C333,481 272,434 205,386C182,434 168,482 168,526 z M562,27C524,41 480,66 434,103C487,170 525,255 551,345l-43,0C485,261 451,187 404,128C336,188 267,270 221,354C296,410 373,466 373,551C373,620 334,671 263,671C183,671 127,609 127,524C127,473 144,417 171,361C102,310 36,254 36,167C36,58 121,-12 226,-12C300,-12 358,22 406,71C458,30 505,3 547,-12z"/>
<glyph unicode="0" horiz-adv-x="479" d="M239,-12C361,-12 430,109 430,322C430,534 361,651 239,651C117,651 48,534 48,322C48,109 117,-12 239,-12 z M239,26C151,26 93,127 93,322C93,517 151,613 239,613C328,613 385,517 385,322C385,127 328,26 239,26z"/>
<glyph unicode="1" horiz-adv-x="479" d="M84,0l334,0l0,39l-139,0l0,600l-36,0C213,622 172,608 120,599l0,-30l114,0l0,-530l-150,0z"/>
<glyph unicode="2" horiz-adv-x="479" d="M41,0l392,0l0,40l-218,0C180,40 143,37 108,35C285,223 401,345 401,472C401,580 335,651 221,651C143,651 87,610 39,557l29,-28C107,577 159,613 217,613C313,613 356,551 356,471C356,360 251,241 41,28z"/>
<glyph unicode="3" horiz-adv-x="479" d="M29,78C70,35 130,-12 232,-12C342,-12 427,58 427,169C427,259 361,318 282,335l0,4C352,363 404,413 404,497C404,595 328,651 229,651C155,651 100,616 56,573l26,-30C119,582 170,613 229,613C307,613 358,566 358,494C358,417 306,355 158,355l0,-39C317,316 381,256 381,168C381,83 318,27 232,27C144,27 93,67 55,109z"/>
<glyph unicode="4" horiz-adv-x="479" d="M70,229l188,264C276,522 294,546 310,573l4,0C312,544 310,492 310,463l0,-234 z M448,229l-95,0l0,410l-40,0l-297,-422l0,-26l294,0l0,-191l43,0l0,191l95,0z"/>
<glyph unicode="5" horiz-adv-x="479" d="M26,74C67,33 125,-12 227,-12C330,-12 431,65 431,201C431,341 344,403 236,403C189,403 155,389 122,369l20,231l255,0l0,39l-295,0l-23,-299l31,-19C148,347 180,364 229,364C324,364 385,302 385,199C385,96 311,27 226,27C139,27 89,66 51,105z"/>
<glyph unicode="6" horiz-adv-x="479" d="M262,26C158,26 106,117 98,252C150,322 208,348 253,348C350,348 391,280 391,188C391,97 336,26 262,26 z M422,589C389,626 347,651 287,651C164,651 52,558 52,290C52,96 133,-12 261,-12C356,-12 436,72 436,188C436,317 370,386 258,386C199,386 141,351 97,297C99,532 186,612 287,612C328,612 367,594 395,559z"/>
<glyph unicode="7" horiz-adv-x="479" d="M188,0l48,0C246,250 284,410 437,613l0,26l-393,0l0,-39l337,0C252,420 198,258 188,0z"/>
<glyph unicode="8" horiz-adv-x="479" d="M84,166C84,236 132,289 197,327C296,288 392,254 392,156C392,83 333,25 243,25C151,25 84,87 84,166 z M290,335C206,368 120,404 120,495C120,564 172,614 243,614C326,614 374,554 374,483C374,428 344,379 290,335 z M40,164C40,63 126,-12 243,-12C359,-12 437,62 437,155C437,241 380,284 325,318l0,4C362,352 416,414 416,484C416,580 352,651 243,651C150,651 76,587 76,495C76,427 121,379 168,348l0,-4C108,312 40,250 40,164z"/>
<glyph unicode="9" horiz-adv-x="479" d="M226,291C128,291 87,359 87,452C87,543 143,613 216,613C320,613 373,523 381,388C329,319 271,291 226,291 z M56,50C88,13 132,-12 191,-12C315,-12 426,82 426,350C426,544 345,651 218,651C123,651 43,568 43,452C43,323 109,254 220,254C280,254 338,289 382,342C380,107 293,27 192,27C150,27 111,45 83,80z"/>
<glyph unicode="&#xE03A;" horiz-adv-x="513" d="M257,-12C385,-12 458,110 458,322C458,533 385,651 257,651C129,651 56,533 56,322C56,110 129,-12 257,-12 z M257,27C162,27 102,128 102,322C102,516 162,612 257,612C351,612 412,516 412,322C412,128 351,27 257,27z"/>
<glyph unicode="&#xE03B;" horiz-adv-x="345" d="M172,0l44,0l0,639l-36,0C150,622 110,608 57,599l0,-30l115,0z"/>
<glyph unicode="&#xE03C;" horiz-adv-x="486" d="M42,0l390,0l0,40l-216,0C181,40 144,37 109,35C286,223 401,345 401,472C401,580 335,651 222,651C146,651 91,614 39,557l29,-28C107,577 159,613 217,613C314,613 356,551 356,471C356,360 251,241 42,28z"/>
<glyph unicode="&#xE03D;" horiz-adv-x="479" d="M29,78C70,35 130,-12 232,-12C342,-12 427,58 427,169C427,259 361,318 282,335l0,4C352,363 404,413 404,497C404,595 328,651 229,651C155,651 100,616 56,573l26,-30C119,582 170,613 229,613C307,613 358,566 358,494C358,417 306,355 158,355l0,-39C317,316 381,256 381,168C381,83 318,27 232,27C144,27 93,67 55,109z"/>
<glyph unicode="&#xE03E;" horiz-adv-x="495" d="M87,229l187,264C292,522 310,546 326,573l4,0C328,544 326,492 326,463l0,-234 z M464,229l-95,0l0,410l-39,0l-297,-422l0,-26l293,0l0,-191l43,0l0,191l95,0z"/>
<glyph unicode="&#xE03F;" horiz-adv-x="479" d="M26,74C67,33 125,-12 227,-12C330,-12 431,65 431,201C431,341 344,403 236,403C189,403 155,389 122,369l20,231l255,0l0,39l-295,0l-23,-299l31,-19C148,347 180,364 229,364C324,364 385,302 385,199C385,96 311,27 226,27C139,27 89,66 51,105z"/>
<glyph unicode="&#xE040;" horiz-adv-x="504" d="M273,26C169,26 117,117 109,252C161,322 219,348 264,348C361,348 402,280 402,188C402,97 347,26 273,26 z M433,589C400,626 358,651 298,651C175,651 63,558 63,290C63,96 144,-12 272,-12C366,-12 447,72 447,188C447,317 381,386 269,386C210,386 152,352 108,298C110,532 197,612 298,612C339,612 378,594 406,559z"/>
<glyph unicode="&#xE041;" horiz-adv-x="476" d="M178,0l48,0C236,250 272,410 423,613l0,26l-379,0l0,-39l323,0C240,420 188,258 178,0z"/>
<glyph unicode="&#xE042;" horiz-adv-x="511" d="M101,166C101,236 149,289 214,327C313,288 409,254 409,156C409,83 350,25 260,25C168,25 101,87 101,166 z M307,335C223,368 137,404 137,495C137,564 189,614 260,614C343,614 391,554 391,483C391,428 361,379 307,335 z M57,164C57,63 143,-12 260,-12C376,-12 454,62 454,155C454,241 397,284 342,318l0,4C379,352 433,414 433,484C433,580 369,651 260,651C167,651 93,587 93,495C93,427 138,379 185,348l0,-4C125,312 57,250 57,164z"/>
<glyph unicode="&#xE043;" horiz-adv-x="504" d="M235,291C137,291 96,359 96,452C96,543 152,613 225,613C329,613 382,523 390,388C338,319 280,291 235,291 z M65,50C97,13 141,-12 200,-12C324,-12 435,82 435,350C435,544 354,651 227,651C132,651 52,568 52,452C52,323 118,254 229,254C289,254 347,289 391,342C389,107 302,27 201,27C159,27 120,45 92,80z"/>
<glyph unicode="&#xE044;" horiz-adv-x="479" d="M239,-12C358,-12 430,85 430,286C430,486 358,583 239,583C121,583 48,486 48,286C48,85 121,-12 239,-12 z M239,26C150,26 93,120 93,286C93,451 150,545 239,545C329,545 385,451 385,286C385,120 329,26 239,26z"/>
<glyph unicode="&#xE045;" horiz-adv-x="479" d="M84,0l334,0l0,39l-139,0l0,532l-36,0C213,554 172,539 120,531l0,-31l114,0l0,-461l-150,0z"/>
<glyph unicode="&#xE046;" horiz-adv-x="479" d="M41,0l392,0l0,40l-211,0C187,40 150,37 114,35C279,188 401,287 401,403C401,510 334,581 221,581C143,581 87,540 39,486l29,-27C107,507 159,543 217,543C313,543 355,480 355,402C355,302 249,205 41,28z"/>
<glyph unicode="&#xE047;" horiz-adv-x="479" d="M29,7C70,-36 130,-83 232,-83C342,-83 427,-13 427,98C427,189 361,249 282,265l0,4C352,293 404,344 404,428C404,526 328,583 229,583C155,583 100,548 56,505l26,-31C119,514 170,544 229,544C307,544 358,497 358,425C358,348 306,285 158,285l0,-39C317,246 381,185 381,98C381,13 318,-44 232,-44C144,-44 93,-4 55,38z"/>
<glyph unicode="&#xE048;" horiz-adv-x="479" d="M70,140l188,272C276,441 294,472 310,501l4,0C312,472 310,424 310,394l0,-254 z M448,140l-95,0l0,431l-40,0l-297,-443l0,-27l294,0l0,-172l43,0l0,172l95,0z"/>
<glyph unicode="&#xE049;" horiz-adv-x="479" d="M26,4C67,-38 125,-83 227,-83C330,-83 431,-6 431,131C431,271 344,333 236,333C189,333 155,319 122,300l20,231l255,0l0,40l-295,0l-23,-300l31,-19C148,277 180,294 229,294C324,294 385,232 385,129C385,26 311,-44 226,-44C139,-44 89,-5 51,34z"/>
<glyph unicode="&#xE04A;" horiz-adv-x="479" d="M264,26C160,26 108,117 100,252C152,322 210,348 255,348C352,348 393,280 393,188C393,97 338,26 264,26 z M424,589C391,626 349,651 289,651C166,651 54,558 54,290C54,96 135,-12 263,-12C357,-12 438,72 438,188C438,317 372,386 260,386C201,386 143,352 99,298C101,532 188,612 289,612C330,612 369,594 397,559z"/>
<glyph unicode="&#xE04B;" horiz-adv-x="479" d="M188,-71l48,0C246,179 284,341 437,544l0,27l-393,0l0,-40l337,0C252,351 198,187 188,-71z"/>
<glyph unicode="&#xE04C;" horiz-adv-x="479" d="M84,166C84,236 132,289 197,327C296,288 392,254 392,156C392,83 333,25 243,25C151,25 84,87 84,166 z M290,335C206,368 120,404 120,495C120,564 172,614 243,614C326,614 374,554 374,483C374,428 344,379 290,335 z M40,164C40,63 126,-12 243,-12C359,-12 437,62 437,155C437,241 380,284 325,318l0,4C362,352 416,414 416,484C416,580 352,651 243,651C150,651 76,587 76,495C76,427 121,379 168,348l0,-4C108,312 40,250 40,164z"/>
<glyph unicode="&#xE04D;" horiz-adv-x="479" d="M219,206C116,206 77,278 77,374C77,470 136,545 216,545C324,545 376,449 382,304C329,233 270,206 219,206 z M57,-24C93,-60 136,-83 197,-83C321,-83 427,15 427,280C427,471 348,583 217,583C118,583 33,495 33,374C33,243 96,169 214,169C279,169 338,203 382,257C376,34 293,-44 197,-44C152,-44 113,-27 81,8z"/>
<glyph unicode="&#xE04E;" horiz-adv-x="502" d="M247,-12C366,-12 438,85 438,286C438,486 366,583 247,583C129,583 56,486 56,286C56,85 129,-12 247,-12 z M247,26C158,26 101,120 101,286C101,451 158,545 247,545C337,545 393,451 393,286C393,120 337,26 247,26z"/>
<glyph unicode="&#xE04F;" horiz-adv-x="345" d="M172,0l44,0l0,571l-36,0C150,554 110,539 57,531l0,-31l115,0z"/>
<glyph unicode="&#xE050;" horiz-adv-x="485" d="M49,0l382,0l0,40l-202,0C194,40 157,37 122,35C286,188 400,287 400,403C400,510 337,581 224,581C146,581 94,540 46,486l29,-27C114,507 162,543 220,543C316,543 355,480 355,402C355,302 257,205 49,28z"/>
<glyph unicode="&#xE051;" horiz-adv-x="479" d="M29,7C70,-36 130,-83 232,-83C342,-83 427,-13 427,98C427,189 361,249 282,265l0,4C352,293 404,344 404,428C404,526 328,583 229,583C155,583 100,548 56,505l26,-31C119,514 170,544 229,544C307,544 358,497 358,425C358,348 306,285 158,285l0,-39C317,246 381,185 381,98C381,13 318,-44 232,-44C144,-44 93,-4 55,38z"/>
<glyph unicode="&#xE052;" horiz-adv-x="502" d="M78,140l188,272C284,441 302,472 318,501l4,0C320,472 318,424 318,394l0,-254 z M456,140l-95,0l0,431l-40,0l-297,-443l0,-27l294,0l0,-172l43,0l0,172l95,0z"/>
<glyph unicode="&#xE053;" horiz-adv-x="479" d="M26,4C67,-38 125,-83 227,-83C330,-83 431,-6 431,131C431,271 344,333 236,333C189,333 155,319 122,300l20,231l255,0l0,40l-295,0l-23,-300l31,-19C148,277 180,294 229,294C324,294 385,232 385,129C385,26 311,-44 226,-44C139,-44 89,-5 51,34z"/>
<glyph unicode="&#xE054;" horiz-adv-x="502" d="M272,26C168,26 116,117 108,252C160,322 218,348 263,348C360,348 401,280 401,188C401,97 346,26 272,26 z M432,589C399,626 357,651 297,651C174,651 62,558 62,290C62,96 143,-12 271,-12C365,-12 446,72 446,188C446,317 380,386 268,386C209,386 151,352 107,298C109,532 196,612 297,612C338,612 377,594 405,559z"/>
<glyph unicode="&#xE055;" horiz-adv-x="474" d="M177,-71l48,0C235,180 272,341 423,544l0,27l-379,0l0,-40l323,0C240,351 188,187 177,-71z"/>
<glyph unicode="&#xE056;" horiz-adv-x="502" d="M92,166C92,236 140,289 205,327C304,288 400,254 400,156C400,83 341,25 251,25C159,25 92,87 92,166 z M298,335C214,368 128,404 128,495C128,564 180,614 251,614C334,614 382,554 382,483C382,428 352,379 298,335 z M48,164C48,63 134,-12 251,-12C367,-12 445,62 445,155C445,241 388,284 333,318l0,4C370,352 424,414 424,484C424,580 360,651 251,651C158,651 84,587 84,495C84,427 129,379 176,348l0,-4C116,312 48,250 48,164z"/>
<glyph unicode="&#xE057;" horiz-adv-x="502" d="M227,206C124,206 85,278 85,374C85,470 144,545 224,545C332,545 384,449 390,304C337,233 278,206 227,206 z M65,-24C101,-60 144,-83 205,-83C329,-83 435,15 435,280C435,471 356,583 225,583C126,583 41,495 41,374C41,243 104,169 222,169C287,169 346,203 390,257C384,34 301,-44 205,-44C160,-44 121,-27 89,8z"/>
<glyph unicode="." horiz-adv-x="219" d="M67,33C67,5 88,-12 110,-12C132,-12 152,5 152,33C152,62 132,79 110,79C88,79 67,62 67,33z"/>
<glyph unicode="," horiz-adv-x="219" d="M62,-155C122,-123 165,-65 165,8C165,52 144,79 114,79C92,79 71,64 71,37C71,10 90,-5 113,-5C117,-5 121,-5 125,-4C124,-59 93,-101 48,-125z"/>
<glyph unicode=":" horiz-adv-x="219" d="M67,415C67,387 88,370 110,370C132,370 152,387 152,415C152,444 132,461 110,461C88,461 67,444 67,415 z M67,33C67,5 88,-12 110,-12C132,-12 152,5 152,33C152,62 132,79 110,79C88,79 67,62 67,33z"/>
<glyph unicode=";" horiz-adv-x="219" d="M110,370C132,370 152,387 152,415C152,444 132,461 110,461C88,461 67,444 67,415C67,387 88,370 110,370 z M62,-155C122,-123 165,-65 165,8C165,52 144,79 114,79C92,79 71,64 71,37C71,10 90,-5 113,-5C117,-5 121,-5 125,-4C124,-59 93,-101 48,-125z"/>
<glyph unicode="&#x2026;" horiz-adv-x="931" d="M104,33C104,5 125,-12 147,-12C169,-12 189,5 189,33C189,62 169,79 147,79C125,79 104,62 104,33 z M441,33C441,5 462,-12 484,-12C506,-12 526,5 526,33C526,62 506,79 484,79C462,79 441,62 441,33 z M779,33C779,5 799,-12 821,-12C843,-12 863,5 863,33C863,62 843,79 821,79C799,79 779,62 779,33z"/>
<glyph unicode="!" horiz-adv-x="259" d="M113,179l33,0l6,420l1,71l-46,0l0,-71 z M87,33C87,5 108,-12 130,-12C152,-12 172,5 172,33C172,62 152,79 130,79C108,79 87,62 87,33z"/>
<glyph unicode="&#xA1;" horiz-adv-x="259" d="M146,301l-33,0l-6,-420l0,-71l46,0l-1,71 z M172,448C172,475 152,492 130,492C108,492 87,475 87,448C87,418 108,401 130,401C152,401 172,418 172,448z"/>
<glyph unicode="?" horiz-adv-x="402" d="M163,179l40,0C184,332 352,393 352,529C352,616 294,682 196,682C127,682 76,648 37,604l27,-25C97,620 144,643 193,643C271,643 306,588 306,526C306,403 141,345 163,179 z M144,33C144,5 164,-12 186,-12C208,-12 229,5 229,33C229,62 208,79 186,79C164,79 144,62 144,33z"/>
<glyph unicode="&#xBF;" horiz-adv-x="402" d="M240,301l-41,0C218,149 51,87 51,-49C51,-136 109,-202 207,-202C275,-202 327,-167 366,-124l-28,25C305,-139 258,-163 210,-163C131,-163 96,-107 96,-46C96,77 261,135 240,301 z M258,448C258,475 238,492 216,492C194,492 174,475 174,448C174,418 194,401 216,401C238,401 258,418 258,448z"/>
<glyph unicode="'" horiz-adv-x="219" d="M92,477l33,0l9,147l0,69l-51,0l1,-69z"/>
<glyph unicode="&quot;" horiz-adv-x="360" d="M92,477l33,0l9,147l0,69l-51,0l1,-69 z M234,477l32,0l9,147l1,69l-52,0l1,-69z"/>
<glyph unicode="&#x2018;" horiz-adv-x="219" d="M143,703C90,668 58,618 58,547C58,504 76,480 102,480C125,480 142,495 142,520C142,545 122,557 102,557C99,557 96,557 94,556C94,613 117,644 161,680z"/>
<glyph unicode="&#x2019;" horiz-adv-x="219" d="M76,477C130,512 162,562 162,633C162,676 144,700 117,700C94,700 78,685 78,660C78,635 98,623 117,623C120,623 123,623 125,624C125,567 102,536 58,500z"/>
<glyph unicode="&#x201C;" horiz-adv-x="360" d="M143,703C90,668 58,618 58,547C58,504 76,480 102,480C125,480 142,495 142,520C142,545 122,557 102,557C99,557 96,557 94,556C94,613 117,644 161,680 z M285,703C231,668 199,618 199,547C199,504 217,480 244,480C267,480 283,495 283,520C283,545 263,557 244,557C241,557 238,557 235,556C235,612 258,644 303,680z"/>
<glyph unicode="&#x201D;" horiz-adv-x="360" d="M76,477C130,512 162,562 162,633C162,676 144,700 117,700C94,700 78,685 78,660C78,635 98,623 117,623C120,623 123,623 125,624C125,567 102,536 58,500 z M217,477C271,512 303,562 303,633C303,676 285,700 258,700C235,700 219,685 219,660C219,635 239,623 258,623C261,623 264,623 266,624C266,567 243,536 199,500z"/>
<glyph unicode="&#x201A;" horiz-adv-x="219" d="M76,-131C130,-96 162,-46 162,25C162,68 144,92 117,92C94,92 78,77 78,52C78,27 98,15 117,15C120,15 123,15 125,16C125,-41 102,-72 58,-108z"/>
<glyph unicode="&#x201E;" horiz-adv-x="360" d="M76,-131C130,-96 162,-46 162,25C162,68 144,92 117,92C94,92 78,77 78,52C78,27 98,15 117,15C120,15 123,15 125,16C125,-41 102,-72 58,-108 z M217,-131C271,-96 303,-46 303,25C303,68 285,92 258,92C235,92 219,77 219,52C219,27 239,15 258,15C261,15 264,15 266,16C266,-41 243,-72 199,-108z"/>
<glyph unicode="&#x2039;" horiz-adv-x="259" d="M180,72l25,19l-123,161l123,159l-25,21l-137,-161l0,-38z"/>
<glyph unicode="&#x203A;" horiz-adv-x="259" d="M54,91l24,-19l138,161l0,38l-138,161l-24,-21l122,-159z"/>
<glyph unicode="&#xAB;" horiz-adv-x="399" d="M180,72l25,19l-123,161l123,159l-25,21l-137,-161l0,-38 z M321,72l24,19l-122,161l122,159l-24,21l-138,-161l0,-38z"/>
<glyph unicode="&#xBB;" horiz-adv-x="399" d="M54,91l24,-19l138,161l0,38l-138,161l-24,-21l122,-159 z M195,91l24,-19l137,161l0,38l-137,161l-24,-21l122,-159z"/>
<glyph unicode="-" horiz-adv-x="299" d="M40,230l220,0l0,39l-220,0z"/>
<glyph unicode="&#xAD;" horiz-adv-x="299" d="M40,230l220,0l0,39l-220,0z"/>
<glyph unicode="&#x2013;" horiz-adv-x="480" d="M40,232l400,0l0,36l-400,0z"/>
<glyph unicode="&#x2014;" horiz-adv-x="800" d="M40,232l720,0l0,36l-720,0z"/>
<glyph unicode="&#x2012;" horiz-adv-x="479" d="M40,232l400,0l0,36l-400,0z"/>
<glyph unicode="&#x2015;" horiz-adv-x="800" d="M40,232l720,0l0,36l-720,0z"/>
<glyph unicode="&#xB7;" horiz-adv-x="219" d="M67,322C67,294 88,277 110,277C132,277 152,294 152,322C152,351 132,368 110,368C88,368 67,351 67,322z"/>
<glyph unicode="&#x2022;" horiz-adv-x="281" d="M140,154C192,154 241,196 241,264C241,331 192,374 140,374C89,374 40,331 40,264C40,196 89,154 140,154z"/>
<glyph unicode="_" horiz-adv-x="500" d="M12,-79l0,-38l476,0l0,38z"/>
<glyph unicode="(" horiz-adv-x="279" d="M220,-175l27,16C168,-33 127,120 127,278C127,436 168,589 247,715l-27,16C138,598 88,454 88,278C88,102 138,-42 220,-175z"/>
<glyph unicode=")" horiz-adv-x="279" d="M32,-159l27,-16C141,-42 191,102 191,278C191,454 141,598 59,731l-27,-16C111,589 152,436 152,278C152,120 111,-33 32,-159z"/>
<glyph unicode="[" horiz-adv-x="279" d="M98,-152l160,0l0,29l-125,0l0,802l125,0l0,29l-160,0z"/>
<glyph unicode="]" horiz-adv-x="279" d="M21,-123l0,-29l160,0l0,860l-160,0l0,-29l125,0l0,-802z"/>
<glyph unicode="{" horiz-adv-x="279" d="M227,-123C166,-123 150,-90 150,-20C150,45 156,100 156,172C156,229 145,264 105,276l0,4C145,292 156,325 156,384C156,456 150,511 150,576C150,646 166,679 227,679l31,0l0,29l-34,0C150,708 113,681 113,580C113,506 121,444 121,373C121,334 105,294 35,294l0,-32C105,262 121,222 121,181C121,112 113,50 113,-24C113,-125 150,-152 224,-152l34,0l0,29z"/>
<glyph unicode="}" horiz-adv-x="279" d="M21,-123l0,-29l34,0C129,-152 166,-125 166,-24C166,50 158,112 158,181C158,222 174,262 244,262l0,32C174,294 158,334 158,373C158,444 166,506 166,580C166,681 129,708 55,708l-34,0l0,-29l31,0C113,679 129,646 129,576C129,511 123,456 123,384C123,325 135,292 174,280l0,-4C135,264 123,229 123,172C123,100 129,45 129,-20C129,-90 113,-123 52,-123z"/>
<glyph unicode="/" horiz-adv-x="357" d="M9,-160l38,0l305,870l-38,0z"/>
<glyph unicode="|" horiz-adv-x="226" d="M95,-250l36,0l0,1000l-36,0z"/>
<glyph unicode="\" horiz-adv-x="357" d="M311,-160l38,0l-306,870l-38,0z"/>
<glyph unicode="&#xA6;" horiz-adv-x="226" d="M95,279l36,0l0,471l-36,0 z M95,220l0,-470l36,0l0,470z"/>
<glyph unicode="*" horiz-adv-x="395" d="M132,462l66,83l64,-83l27,20l-54,88l90,36l-10,30l-95,-25l-7,101l-32,0l-7,-102l-95,26l-9,-30l90,-36l-55,-88z"/>
<glyph unicode="&#x2020;" horiz-adv-x="420" d="M189,-80l42,0l-2,602l132,-2l0,42l-132,-3l2,153l-42,0l3,-153l-132,3l0,-42l132,2z"/>
<glyph unicode="&#x2021;" horiz-adv-x="420" d="M60,70l132,3l-3,-153l42,0l-2,153l132,-3l0,42l-132,-3l2,207l-2,207l132,-3l0,42l-132,-3l2,153l-42,0l3,-153l-132,3l0,-42l132,3l-3,-207l3,-207l-132,3z"/>
<glyph unicode="&#xA7;" horiz-adv-x="479" d="M312,181C228,236 92,250 92,355C92,406 123,433 168,459C251,405 387,389 387,281C387,227 360,203 312,181 z M381,628C344,658 296,681 241,681C149,681 106,621 106,564C106,529 119,503 139,483C89,456 50,416 50,352C50,170 333,206 333,70C333,24 294,-15 233,-15C172,-15 136,7 102,39l-30,-28C111,-26 164,-52 233,-52C310,-52 376,0 376,72C376,108 363,135 342,156C393,184 429,218 429,284C429,469 148,436 148,567C148,605 175,643 242,643C292,643 325,623 357,597z"/>
<glyph unicode="&#xB6;" horiz-adv-x="515" d="M373,-80l46,0l0,739l-46,0 z M291,244l28,0l0,415l-44,0C138,659 42,601 42,451C42,302 144,244 291,244z"/>
<glyph unicode="&#xA9;" horiz-adv-x="741" d="M51,322C51,120 198,-12 371,-12C543,-12 690,120 690,322C690,523 543,652 371,652C198,652 51,523 51,322 z M86,322C86,502 217,622 371,622C524,622 655,502 655,322C655,141 524,19 371,19C217,19 86,141 86,322 z M201,322C201,197 281,124 376,124C440,124 477,151 513,183l-20,28C462,183 426,161 378,161C297,161 244,223 244,322C244,412 301,472 380,472C420,472 447,457 478,428l23,26C469,486 434,509 381,509C286,509 201,438 201,322z"/>
<glyph unicode="&#x2117;" horiz-adv-x="739" d="M261,136l41,0l0,129l93,0C471,265 530,307 530,388C530,461 471,497 395,497l-134,0 z M302,299l0,164l81,0C447,463 487,440 487,388C487,326 447,299 383,299 z M51,322C51,120 198,-12 371,-12C543,-12 690,120 690,322C690,523 543,652 371,652C198,652 51,523 51,322 z M86,322C86,502 217,622 371,622C524,622 655,502 655,322C655,141 524,19 371,19C217,19 86,141 86,322z"/>
<glyph unicode="&#xAE;" horiz-adv-x="401" d="M200,324C300,324 382,401 382,517C382,634 300,712 200,712C101,712 18,634 18,517C18,401 101,324 200,324 z M200,353C116,353 49,422 49,517C49,613 116,684 200,684C284,684 351,613 351,517C351,422 284,353 200,353 z M132,418l32,0l0,76l47,0l39,-76l37,0l-49,86C261,511 278,535 278,560C278,610 240,624 201,624l-69,0 z M164,521l0,75l32,0C232,596 244,581 244,558C244,532 223,521 193,521z"/>
<glyph unicode="&#x2122;" horiz-adv-x="610" d="M307,369l38,0l0,161l-5,98l4,0l82,-211l34,0l82,211l4,0l-5,-98l0,-161l38,0l0,307l-52,0l-50,-125l-31,-86l-4,0l-31,86l-52,125l-52,0 z M109,369l38,0l0,272l108,0l0,35l-253,0l0,-35l107,0z"/>
<glyph unicode="&#x2120;" horiz-adv-x="610" d="M140,357C202,357 239,397 239,440C239,485 217,507 179,525l-49,25C102,563 85,578 85,601C85,627 105,649 143,649C167,649 191,635 211,618l21,26C211,665 178,681 145,681C89,681 48,651 48,600C48,555 79,533 107,519l49,-26C188,476 202,470 202,439C202,409 180,389 143,389C106,389 81,403 56,428l-24,-25C58,375 96,357 140,357 z M307,369l38,0l0,161l-5,98l4,0l82,-211l34,0l82,211l4,0l-5,-98l0,-161l38,0l0,307l-52,0l-50,-125l-31,-86l-4,0l-31,86l-52,125l-52,0z"/>
<glyph unicode="@" horiz-adv-x="814" d="M52,202C52,-18 195,-146 388,-146C456,-146 518,-128 575,-92l-16,30C511,-91 457,-110 391,-110C212,-110 90,10 90,205C90,443 263,598 446,598C619,598 725,485 725,313C725,172 646,91 582,91C521,91 499,135 522,226l36,189l-34,0l-9,-40l-2,0C493,407 466,423 430,423C312,423 244,295 244,198C244,108 296,62 358,62C404,62 445,93 480,132l2,0C487,80 526,56 579,56C662,56 763,146 763,316C763,506 642,633 449,633C238,633 52,463 52,202 z M284,201C284,285 339,387 429,387C459,387 479,375 503,338l-31,-173C432,119 396,98 364,98C319,98 284,125 284,201z"/>
<glyph unicode="&#xE058;" horiz-adv-x="754" d="M52,289C52,90 184,-18 359,-18C414,-18 466,-5 512,25l-17,28C458,28 411,17 362,17C203,17 90,109 90,291C90,506 246,646 416,646C571,646 665,551 665,394C665,261 597,189 540,189C486,189 472,228 493,324l37,169l-36,0l-10,-40l-2,0C464,485 436,501 404,501C286,501 224,379 224,286C224,208 273,160 329,160C378,160 416,192 449,230l2,0C454,182 486,154 535,154C617,154 703,240 703,396C703,571 589,681 423,681C225,681 52,524 52,289 z M336,196C297,196 263,226 263,292C263,370 316,466 401,466C432,466 449,454 473,417l-31,-154C402,217 367,196 336,196z"/>
<glyph unicode="#" horiz-adv-x="479" d="M93,0l35,0l26,214l149,0l-25,-214l35,0l25,214l91,0l0,36l-86,0l21,170l85,0l0,36l-82,0l25,194l-34,0l-26,-194l-149,0l25,194l-35,0l-25,-194l-92,0l0,-36l88,0l-21,-170l-87,0l0,-36l83,0 z M158,250l21,170l150,0l-21,-170z"/>
<glyph unicode="&#xE059;" horiz-adv-x="362" d="M181,428C268,428 322,502 322,636C322,768 268,842 181,842C94,842 40,768 40,636C40,502 94,428 181,428 z M181,461C119,461 79,525 79,636C79,747 119,809 181,809C243,809 283,747 283,636C283,525 243,461 181,461z"/>
<glyph unicode="&#xE05A;" horiz-adv-x="362" d="M176,440l38,0l0,390l-33,0C158,811 132,799 94,791l0,-27l82,0z"/>
<glyph unicode="&#xE05B;" horiz-adv-x="362" d="M56,440l255,0l0,34l-192,0C219,573 288,637 288,719C288,801 239,842 167,842C118,842 71,809 47,769l25,-23C94,780 127,808 163,808C215,808 249,772 249,715C249,649 190,589 56,465z"/>
<glyph unicode="&#xE05C;" horiz-adv-x="362" d="M40,503C67,463 116,428 177,428C250,428 308,471 308,543C308,598 264,631 217,640C260,657 292,690 292,739C292,804 239,842 174,842C124,842 84,815 56,779l25,-22C106,788 139,809 170,809C221,809 253,779 253,736C253,691 209,652 131,652l0,-28C216,624 269,595 269,544C269,491 227,461 178,461C133,461 93,487 69,525z"/>
<glyph unicode="&#xE05D;" horiz-adv-x="362" d="M94,586l73,108l56,83l4,0l-4,-104l0,-87 z M317,586l-58,0l0,244l-36,0l-177,-255l0,-21l177,0l0,-114l36,0l0,114l58,0z"/>
<glyph unicode="&#xE05E;" horiz-adv-x="362" d="M40,503C69,463 113,428 181,428C255,428 313,481 313,562C313,649 257,695 186,695C156,695 133,686 113,675l13,119l166,0l0,36l-199,0l-20,-185l24,-16C118,646 143,665 179,665C236,665 274,625 274,563C274,503 234,461 181,461C130,461 95,487 69,525z"/>
<glyph unicode="&#xE05F;" horiz-adv-x="362" d="M194,461C134,461 94,511 89,599C125,639 155,651 190,651C249,651 279,610 279,557C279,503 245,461 194,461 z M297,818C275,832 251,842 213,842C128,842 50,781 50,620C50,498 108,428 193,428C264,428 317,484 317,557C317,630 275,683 195,683C155,683 120,667 88,638C94,760 154,809 212,809C240,809 261,799 280,787z"/>
<glyph unicode="&#xE060;" horiz-adv-x="362" d="M139,440l40,0C187,579 212,681 311,807l0,23l-261,0l0,-34l216,0C181,684 149,583 139,440z"/>
<glyph unicode="&#xE061;" horiz-adv-x="362" d="M87,539C87,577 109,610 152,634C213,611 272,597 272,539C272,496 230,460 179,460C123,460 87,499 87,539 z M206,653C149,671 104,695 104,741C104,780 138,808 179,808C222,808 258,782 258,742C258,710 241,680 206,653 z M49,536C49,478 100,428 179,428C253,428 310,476 310,540C310,586 283,615 236,639l0,4C259,661 296,691 296,741C296,802 245,842 179,842C116,842 66,800 66,741C66,699 90,675 124,653l0,-4C85,627 49,587 49,536z"/>
<glyph unicode="&#xE062;" horiz-adv-x="362" d="M168,619C110,619 79,660 79,713C79,767 114,809 164,809C226,809 264,759 269,670C233,631 204,619 168,619 z M61,452C84,438 107,428 146,428C230,428 308,489 308,650C308,772 250,842 165,842C94,842 41,786 41,713C41,640 84,587 163,587C203,587 239,603 270,632C264,510 204,461 147,461C119,461 97,471 79,483z"/>
<glyph unicode="&#xE063;" horiz-adv-x="219" d="M152,368l26,16C123,462 104,546 104,634C104,722 123,806 178,883l-26,16C96,822 66,742 66,634C66,525 96,445 152,368z"/>
<glyph unicode="&#xE064;" horiz-adv-x="219" d="M41,384l27,-16C123,445 153,525 153,634C153,742 123,822 68,899l-27,-16C96,806 114,722 114,634C114,546 96,462 41,384z"/>
<glyph unicode="&#xE065;" horiz-adv-x="159" d="M44,470C44,446 59,432 79,432C100,432 115,446 115,470C115,493 100,507 79,507C59,507 44,493 44,470z"/>
<glyph unicode="&#xE066;" horiz-adv-x="159" d="M47,333C93,353 125,399 125,448C125,487 108,507 81,507C63,507 45,494 45,470C45,448 63,438 81,438C84,438 87,438 90,439C90,401 67,373 34,359z"/>
<glyph unicode="&#xE067;" horiz-adv-x="362" d="M181,-192C268,-192 322,-118 322,16C322,148 268,222 181,222C94,222 40,148 40,16C40,-118 94,-192 181,-192 z M181,-159C119,-159 79,-96 79,16C79,127 119,189 181,189C243,189 283,127 283,16C283,-96 243,-159 181,-159z"/>
<glyph unicode="&#xE068;" horiz-adv-x="362" d="M176,-180l38,0l0,390l-33,0C158,191 132,179 94,171l0,-27l82,0z"/>
<glyph unicode="&#xE069;" horiz-adv-x="362" d="M56,-180l255,0l0,34l-192,0C219,-48 288,17 288,99C288,181 239,222 167,222C118,222 71,189 47,149l25,-23C94,160 127,188 163,188C215,188 249,152 249,95C249,29 190,-31 56,-156z"/>
<glyph unicode="&#xE06A;" horiz-adv-x="362" d="M40,-118C67,-157 116,-192 177,-192C250,-192 308,-149 308,-77C308,-23 264,11 217,20C260,37 292,70 292,119C292,183 239,222 174,222C124,222 84,195 56,159l25,-22C106,168 139,189 170,189C221,189 253,159 253,115C253,71 209,32 131,32l0,-28C216,4 269,-25 269,-76C269,-129 227,-159 178,-159C133,-159 93,-133 69,-96z"/>
<glyph unicode="&#xE06B;" horiz-adv-x="362" d="M94,-35l73,109l56,83l4,0l-4,-104l0,-88 z M317,-35l-58,0l0,245l-36,0l-177,-255l0,-21l177,0l0,-114l36,0l0,114l58,0z"/>
<glyph unicode="&#xE06C;" horiz-adv-x="362" d="M40,-118C69,-157 113,-192 181,-192C255,-192 313,-140 313,-58C313,29 257,75 186,75C156,75 133,66 113,55l13,119l166,0l0,36l-199,0l-20,-185l24,-17C118,26 143,45 179,45C236,45 274,5 274,-57C274,-118 234,-159 181,-159C130,-159 95,-133 69,-96z"/>
<glyph unicode="&#xE06D;" horiz-adv-x="362" d="M194,-159C133,-159 94,-109 89,-21C125,18 155,31 190,31C249,31 279,-10 279,-63C279,-117 245,-159 194,-159 z M297,197C275,212 251,222 213,222C128,222 50,160 50,0C50,-123 108,-192 193,-192C264,-192 317,-136 317,-63C317,9 275,63 195,63C155,63 120,47 88,18C94,140 154,189 212,189C240,189 261,179 280,166z"/>
<glyph unicode="&#xE06E;" horiz-adv-x="362" d="M139,-180l40,0C187,-41 212,61 311,187l0,23l-261,0l0,-34l216,0C181,63 149,-37 139,-180z"/>
<glyph unicode="&#xE06F;" horiz-adv-x="362" d="M87,-81C87,-43 109,-11 152,14C213,-9 272,-23 272,-81C272,-125 230,-161 179,-161C123,-161 87,-121 87,-81 z M206,33C149,51 104,75 104,121C104,160 138,188 179,188C222,188 258,162 258,122C258,90 241,60 206,33 z M49,-84C49,-142 100,-192 179,-192C253,-192 310,-144 310,-80C310,-34 283,-5 236,19l0,4C259,41 296,71 296,121C296,182 245,222 179,222C116,222 66,180 66,121C66,79 90,55 124,33l0,-4C85,7 49,-33 49,-84z"/>
<glyph unicode="&#xE070;" horiz-adv-x="362" d="M168,-1C110,-1 79,40 79,93C79,147 114,189 164,189C226,189 265,138 270,49C233,11 204,-1 168,-1 z M61,-168C84,-183 107,-192 146,-192C230,-192 308,-131 308,30C308,152 250,222 165,222C94,222 41,165 41,93C41,20 84,-33 163,-33C203,-33 239,-17 270,12C264,-110 204,-159 147,-159C119,-159 97,-149 79,-137z"/>
<glyph unicode="&#xE071;" horiz-adv-x="219" d="M152,-253l26,17C123,-158 104,-74 104,14C104,102 123,186 178,263l-26,16C96,201 66,122 66,14C66,-95 96,-175 152,-253z"/>
<glyph unicode="&#xE072;" horiz-adv-x="219" d="M41,-236l27,-17C123,-175 153,-95 153,14C153,122 123,201 68,279l-27,-16C96,186 114,102 114,14C114,-74 96,-158 41,-236z"/>
<glyph unicode="&#xE073;" horiz-adv-x="159" d="M44,-151C44,-174 59,-188 79,-188C100,-188 115,-174 115,-151C115,-127 100,-113 79,-113C59,-113 44,-127 44,-151z"/>
<glyph unicode="&#xE074;" horiz-adv-x="159" d="M47,-287C93,-267 125,-222 125,-172C125,-133 108,-113 81,-113C63,-113 45,-126 45,-150C45,-172 63,-182 81,-182C84,-182 87,-182 90,-181C90,-219 67,-247 34,-261z"/>
<glyph unicode="&#xE075;" horiz-adv-x="362" d="M181,-12C268,-12 322,62 322,196C322,328 268,402 181,402C94,402 40,328 40,196C40,62 94,-12 181,-12 z M181,21C119,21 79,85 79,196C79,307 119,369 181,369C243,369 283,307 283,196C283,85 243,21 181,21z"/>
<glyph unicode="&#xE076;" horiz-adv-x="362" d="M176,0l38,0l0,390l-33,0C158,371 132,359 94,351l0,-27l82,0z"/>
<glyph unicode="&#xE077;" horiz-adv-x="362" d="M56,0l255,0l0,34l-192,0C219,133 288,197 288,279C288,361 239,402 167,402C118,402 71,369 47,329l25,-23C94,340 127,368 163,368C215,368 249,332 249,275C249,209 190,149 56,25z"/>
<glyph unicode="&#xE078;" horiz-adv-x="362" d="M40,63C67,23 116,-12 177,-12C250,-12 308,31 308,103C308,158 264,191 217,200C260,217 292,250 292,299C292,364 239,402 174,402C124,402 84,375 56,339l25,-22C106,348 139,369 170,369C221,369 253,339 253,296C253,251 209,212 131,212l0,-28C216,184 269,155 269,104C269,51 227,21 178,21C133,21 93,47 69,85z"/>
<glyph unicode="&#xE079;" horiz-adv-x="362" d="M94,146l73,108l56,83l4,0l-4,-104l0,-87 z M317,146l-58,0l0,244l-36,0l-177,-255l0,-21l177,0l0,-114l36,0l0,114l58,0z"/>
<glyph unicode="&#xE07A;" horiz-adv-x="362" d="M40,63C69,23 113,-12 181,-12C255,-12 313,41 313,122C313,209 257,255 186,255C156,255 133,246 113,235l13,119l166,0l0,36l-199,0l-20,-185l24,-16C118,206 143,225 179,225C236,225 274,185 274,123C274,63 234,21 181,21C130,21 95,47 69,85z"/>
<glyph unicode="&#xE07B;" horiz-adv-x="362" d="M194,21C134,21 94,71 89,159C125,199 155,211 190,211C249,211 279,170 279,117C279,63 245,21 194,21 z M297,378C275,392 251,402 213,402C128,402 50,341 50,180C50,58 108,-12 193,-12C264,-12 317,44 317,117C317,190 275,243 195,243C155,243 120,227 88,198C94,320 154,369 212,369C240,369 261,359 280,347z"/>
<glyph unicode="&#xE07C;" horiz-adv-x="362" d="M139,0l40,0C187,139 212,241 311,367l0,23l-261,0l0,-34l216,0C181,244 149,143 139,0z"/>
<glyph unicode="&#xE07D;" horiz-adv-x="362" d="M87,99C87,137 109,170 152,194C213,171 272,157 272,99C272,56 230,20 179,20C123,20 87,59 87,99 z M206,213C149,231 104,255 104,301C104,340 138,368 179,368C222,368 258,342 258,302C258,270 241,240 206,213 z M49,96C49,38 100,-12 179,-12C253,-12 310,36 310,100C310,146 283,175 236,199l0,4C259,221 296,251 296,301C296,362 245,402 179,402C116,402 66,360 66,301C66,259 90,235 124,213l0,-4C85,187 49,147 49,96z"/>
<glyph unicode="&#xE07E;" horiz-adv-x="362" d="M168,179C110,179 79,220 79,273C79,327 114,369 164,369C226,369 264,319 269,230C233,191 204,179 168,179 z M61,12C84,-2 107,-12 146,-12C230,-12 308,49 308,210C308,332 250,402 165,402C94,402 41,346 41,273C41,200 84,147 163,147C203,147 239,163 270,192C264,70 204,21 147,21C119,21 97,31 79,43z"/>
<glyph unicode="&#xE07F;" horiz-adv-x="219" d="M152,-72l26,16C123,22 104,106 104,194C104,282 123,366 178,443l-26,16C96,382 66,302 66,194C66,85 96,5 152,-72z"/>
<glyph unicode="&#xE080;" horiz-adv-x="219" d="M41,-56l27,-16C123,5 153,85 153,194C153,302 123,382 68,459l-27,-16C96,366 114,282 114,194C114,106 96,22 41,-56z"/>
<glyph unicode="&#xE081;" horiz-adv-x="159" d="M44,30C44,6 59,-8 79,-8C100,-8 115,6 115,30C115,53 100,67 79,67C59,67 44,53 44,30z"/>
<glyph unicode="&#xE082;" horiz-adv-x="159" d="M47,-107C93,-87 125,-41 125,8C125,47 108,67 81,67C63,67 45,54 45,30C45,8 63,-2 81,-2C84,-2 87,-2 90,-1C90,-39 67,-67 34,-81z"/>
<glyph unicode="&#xE083;" horiz-adv-x="362" d="M181,257C268,257 322,331 322,465C322,597 268,671 181,671C94,671 40,597 40,465C40,331 94,257 181,257 z M181,290C119,290 79,354 79,465C79,576 119,638 181,638C243,638 283,576 283,465C283,354 243,290 181,290z"/>
<glyph unicode="&#xE084;" horiz-adv-x="362" d="M176,269l38,0l0,390l-33,0C158,640 132,628 94,620l0,-27l82,0z"/>
<glyph unicode="&#xE085;" horiz-adv-x="362" d="M56,269l255,0l0,34l-192,0C219,402 288,466 288,548C288,630 239,671 167,671C118,671 71,638 47,598l25,-23C94,609 127,637 163,637C215,637 249,601 249,544C249,478 190,418 56,294z"/>
<glyph unicode="&#xE086;" horiz-adv-x="362" d="M40,332C67,292 116,257 177,257C250,257 308,300 308,372C308,427 264,460 217,469C260,486 292,519 292,568C292,633 239,671 174,671C124,671 84,644 56,608l25,-22C106,617 139,638 170,638C221,638 253,608 253,565C253,520 209,481 131,481l0,-28C216,453 269,424 269,373C269,320 227,290 178,290C133,290 93,316 69,354z"/>
<glyph unicode="&#xE087;" horiz-adv-x="362" d="M94,415l73,108l56,83l4,0l-4,-104l0,-87 z M317,415l-58,0l0,244l-36,0l-177,-255l0,-21l177,0l0,-114l36,0l0,114l58,0z"/>
<glyph unicode="&#xE088;" horiz-adv-x="362" d="M40,332C69,292 113,257 181,257C255,257 313,310 313,391C313,478 257,524 186,524C156,524 133,515 113,504l13,119l166,0l0,36l-199,0l-20,-185l24,-16C118,475 143,494 179,494C236,494 274,454 274,392C274,332 234,290 181,290C130,290 95,316 69,354z"/>
<glyph unicode="&#xE089;" horiz-adv-x="362" d="M194,290C134,290 94,340 89,428C125,468 155,480 190,480C249,480 279,439 279,386C279,332 245,290 194,290 z M297,647C275,661 251,671 213,671C128,671 50,610 50,449C50,327 108,257 193,257C264,257 317,313 317,386C317,459 275,512 195,512C155,512 120,496 88,467C94,589 154,638 212,638C240,638 261,628 280,616z"/>
<glyph unicode="&#xE08A;" horiz-adv-x="362" d="M139,269l40,0C187,408 212,510 311,636l0,23l-261,0l0,-34l216,0C181,513 149,412 139,269z"/>
<glyph unicode="&#xE08B;" horiz-adv-x="362" d="M87,368C87,406 109,439 152,463C213,440 272,426 272,368C272,325 230,289 179,289C123,289 87,328 87,368 z M206,482C149,500 104,524 104,570C104,609 138,637 179,637C222,637 258,611 258,571C258,539 241,509 206,482 z M49,365C49,307 100,257 179,257C253,257 310,305 310,369C310,415 283,444 236,468l0,4C259,490 296,520 296,570C296,631 245,671 179,671C116,671 66,629 66,570C66,528 90,504 124,482l0,-4C85,456 49,416 49,365z"/>
<glyph unicode="&#xE08C;" horiz-adv-x="362" d="M168,448C110,448 79,489 79,542C79,596 114,638 164,638C226,638 264,588 269,499C233,460 204,448 168,448 z M61,281C84,267 107,257 146,257C230,257 308,318 308,479C308,601 250,671 165,671C94,671 41,615 41,542C41,469 84,416 163,416C203,416 239,432 270,461C264,339 204,290 147,290C119,290 97,300 79,312z"/>
<glyph unicode="&#xE08D;" horiz-adv-x="219" d="M152,197l26,16C123,291 104,375 104,463C104,551 123,635 178,712l-26,16C96,651 66,571 66,463C66,354 96,274 152,197z"/>
<glyph unicode="&#xE08E;" horiz-adv-x="219" d="M41,213l27,-16C123,274 153,354 153,463C153,571 123,651 68,728l-27,-16C96,635 114,551 114,463C114,375 96,291 41,213z"/>
<glyph unicode="&#xE08F;" horiz-adv-x="159" d="M44,299C44,275 59,261 79,261C100,261 115,275 115,299C115,322 100,336 79,336C59,336 44,322 44,299z"/>
<glyph unicode="&#xE090;" horiz-adv-x="159" d="M47,162C93,182 125,228 125,277C125,316 108,336 81,336C63,336 45,323 45,299C45,277 63,267 81,267C84,267 87,267 90,268C90,230 67,202 34,188z"/>
<glyph unicode="&#xAA;" horiz-adv-x="337" d="M139,261C182,261 217,284 245,308l4,0l6,-39l30,0l0,200C285,545 259,595 182,595C130,595 82,570 56,552l15,-27C94,541 138,562 178,562C233,562 247,521 248,470C105,457 42,422 42,352C42,295 82,261 139,261 z M148,293C107,293 81,312 81,355C81,400 124,431 248,444l0,-102C212,309 179,293 148,293z"/>
<glyph unicode="&#xE091;" horiz-adv-x="367" d="M76,434C76,507 123,562 179,562C208,562 240,551 272,522l0,-179C238,312 210,296 180,296C108,296 76,348 76,434 z M37,432C37,323 89,261 174,261C214,261 242,282 269,306l4,0l5,-37l31,0l0,318l-29,0l-5,-31l-4,0C244,581 214,595 178,595C103,595 37,532 37,432z"/>
<glyph unicode="&#xBA;" horiz-adv-x="360" d="M179,261C260,261 325,323 325,428C325,534 260,595 179,595C98,595 33,534 33,428C33,323 98,261 179,261 z M179,294C115,294 72,349 72,428C72,508 115,562 179,562C243,562 286,508 286,428C286,349 243,294 179,294z"/>
<glyph unicode="&#xE092;" horiz-adv-x="337" d="M139,261C182,261 217,284 245,308l4,0l6,-39l30,0l0,200C285,545 259,595 182,595C130,595 82,570 56,552l15,-27C94,541 138,562 178,562C233,562 247,521 248,470C105,457 42,422 42,352C42,295 82,261 139,261 z M148,293C107,293 81,312 81,355C81,400 124,431 248,444l0,-102C212,309 179,293 148,293z"/>
<glyph unicode="&#xE093;" horiz-adv-x="367" d="M58,269l29,0l4,31l4,0C125,275 160,261 190,261C266,261 330,325 330,434C330,532 287,595 200,595C159,595 126,572 93,544l2,63l0,135l-37,0 z M95,333l0,178C129,543 164,562 195,562C262,562 291,509 291,434C291,348 247,294 189,294C162,294 127,305 95,333z"/>
<glyph unicode="&#xE094;" horiz-adv-x="302" d="M183,261C231,261 260,279 284,299l-17,26C246,307 221,294 184,294C118,294 72,349 72,428C72,506 120,562 183,562C218,562 236,552 259,533l19,26C257,577 228,595 183,595C104,595 33,534 33,428C33,321 96,261 183,261z"/>
<glyph unicode="&#xE095;" horiz-adv-x="367" d="M174,261C214,261 242,282 269,306l4,0l6,-37l30,0l0,473l-37,0l0,-128l2,-57C243,581 214,595 178,595C103,595 37,532 37,434C37,323 89,261 174,261 z M180,294C108,294 76,348 76,434C76,507 123,562 179,562C208,562 240,551 272,522l0,-179C238,312 210,294 180,294z"/>
<glyph unicode="&#xE096;" horiz-adv-x="330" d="M182,261C229,261 262,278 289,295l-16,27C251,306 220,293 185,293C115,293 70,345 69,421l230,0C301,437 301,441 301,452C301,505 277,595 175,595C96,595 31,530 31,428C31,320 98,261 182,261 z M69,451C77,519 117,562 175,562C243,562 266,502 266,451z"/>
<glyph unicode="&#xE097;" horiz-adv-x="183" d="M201,740C183,748 170,750 151,750C96,750 67,709 67,646l0,-59l-46,-3l0,-28l46,0l0,-287l37,0l0,287l74,0l0,31l-74,0l0,63C104,689 120,718 153,718C170,718 182,714 192,710z"/>
<glyph unicode="&#xE098;" horiz-adv-x="332" d="M69,211C69,232 82,253 108,270C122,266 140,266 149,266l64,0C259,266 285,254 285,222C285,185 239,149 171,149C106,149 69,172 69,211 z M34,206C34,151 84,119 165,119C262,119 322,170 322,226C322,279 288,301 214,301l-67,0C102,301 87,316 87,339C87,358 98,371 111,381C127,371 146,368 163,368C227,368 279,414 279,481C279,509 266,538 248,553l70,0l0,32l-105,0C198,591 184,595 163,595C98,595 46,549 46,482C46,444 66,413 87,396l0,-4C71,381 52,361 52,335C52,311 64,293 80,283l0,-4C50,259 34,234 34,206 z M163,398C116,398 82,432 82,482C82,533 116,563 163,563C206,563 244,532 244,482C244,432 206,398 163,398z"/>
<glyph unicode="&#xE099;" horiz-adv-x="356" d="M58,269l37,0l0,236C134,544 166,561 195,561C255,561 268,524 268,466l0,-197l38,0l0,204C306,544 281,595 205,595C163,595 123,569 94,538l1,70l0,134l-37,0z"/>
<glyph unicode="&#xE09A;" horiz-adv-x="153" d="M78,659C96,659 110,672 110,690C110,708 96,721 78,721C60,721 46,708 46,690C46,672 60,659 78,659 z M58,269l37,0l0,318l-37,0z"/>
<glyph unicode="&#xE09B;" horiz-adv-x="157" d="M21,119C72,119 97,151 97,222l0,365l-37,0l0,-369C60,178 52,153 17,153C3,153 -3,155 -12,159l-10,-32C-6,121 3,119 21,119 z M80,659C98,659 112,672 112,690C112,708 98,721 80,721C62,721 48,708 48,690C48,672 62,659 80,659z"/>
<glyph unicode="&#xE09C;" horiz-adv-x="317" d="M58,269l37,0l0,82l68,81l105,-163l44,0l-125,190l108,128l-45,0l-151,-181l-4,0l0,336l-37,0z"/>
<glyph unicode="&#xE09D;" horiz-adv-x="162" d="M58,322C58,282 71,261 106,261C118,261 125,263 132,266l-7,30C119,294 115,294 111,294C101,294 95,300 95,317l0,425l-37,0z"/>
<glyph unicode="&#xE09E;" horiz-adv-x="548" d="M58,269l37,0l0,236C133,544 159,561 187,561C242,561 257,524 257,466l0,-197l38,0l0,236C332,544 359,561 387,561C442,561 457,524 457,466l0,-197l37,0l0,204C494,544 467,595 397,595C355,595 317,565 286,532C273,575 242,595 197,595C155,595 123,571 96,539l-4,0l-5,48l-29,0z"/>
<glyph unicode="&#xE09F;" horiz-adv-x="359" d="M58,269l37,0l0,236C134,544 166,561 197,561C255,561 268,524 268,466l0,-197l38,0l0,204C306,544 281,595 205,595C163,595 125,571 96,539l-4,0l-5,48l-29,0z"/>
<glyph unicode="&#xE0A0;" horiz-adv-x="360" d="M179,261C260,261 325,323 325,428C325,534 260,595 179,595C98,595 33,534 33,428C33,323 98,261 179,261 z M179,294C115,294 72,349 72,428C72,508 115,562 179,562C243,562 286,508 286,428C286,349 243,294 179,294z"/>
<glyph unicode="&#xE0A1;" horiz-adv-x="367" d="M58,130l37,0l0,110l-2,59C122,275 160,261 190,261C266,261 330,325 330,434C330,532 287,595 200,595C159,595 125,571 97,547l-4,0l-6,40l-29,0 z M95,333l0,178C129,543 164,562 195,562C262,562 291,509 291,434C291,348 247,294 189,294C162,294 127,305 95,333z"/>
<glyph unicode="&#xE0A2;" horiz-adv-x="367" d="M272,130l37,0l0,457l-29,0l-5,-31l-4,0C245,581 214,595 178,595C103,595 37,532 37,428C37,323 89,261 175,261C213,261 247,279 274,304l-2,-61 z M180,294C108,294 76,348 76,428C76,507 123,562 179,562C208,562 240,550 272,522l0,-184C240,309 210,294 180,294z"/>
<glyph unicode="&#xE0A3;" horiz-adv-x="221" d="M58,269l39,0l0,213C122,538 154,557 185,557C195,557 207,555 214,553l9,35C215,592 201,595 188,595C150,595 122,571 97,530l-3,0l-7,57l-29,0z"/>
<glyph unicode="&#xE0A4;" horiz-adv-x="275" d="M21,305C52,281 95,261 144,261C207,261 252,300 252,355C252,415 199,430 150,449C111,465 75,476 75,512C75,537 96,563 139,563C174,563 192,552 216,535l22,26C213,580 180,595 139,595C73,595 37,552 37,510C37,454 90,433 137,415C175,401 214,386 214,351C214,319 188,293 144,293C102,293 71,310 42,332z"/>
<glyph unicode="&#xE0A5;" horiz-adv-x="216" d="M68,363C68,303 88,261 153,261C169,261 193,267 210,273l-10,30C187,297 173,294 160,294C120,294 106,320 106,361l0,193l93,0l0,33l-93,0l0,93l-32,0l-5,-93l-51,-3l0,-30l50,0z"/>
<glyph unicode="&#xE0A6;" horiz-adv-x="363" d="M158,261C200,261 238,285 267,316l4,0l5,-47l29,0l0,318l-37,0l0,-236C229,311 197,294 166,294C108,294 95,332 95,389l0,198l-38,0l0,-204C57,311 82,261 158,261z"/>
<glyph unicode="&#xE0A7;" horiz-adv-x="301" d="M127,269l46,0l120,318l-38,0l-68,-191l-35,-93l-4,0l-33,93l-68,191l-39,0z"/>
<glyph unicode="&#xE0A8;" horiz-adv-x="466" d="M109,269l47,0l53,186l23,92l2,0l25,-92l51,-186l48,0l92,318l-38,0l-51,-198l-25,-87l-4,0l-23,87l-56,198l-40,0l-54,-198l-23,-87l-4,0l-23,87l-52,198l-41,0z"/>
<glyph unicode="&#xE0A9;" horiz-adv-x="283" d="M8,269l41,0l51,80l38,57l4,0l37,-57l51,-80l43,0l-107,163l100,155l-42,0l-46,-75l-31,-52l-4,0l-33,52l-49,75l-43,0l101,-151z"/>
<glyph unicode="&#xE0AA;" horiz-adv-x="299" d="M27,169l-9,-34C29,131 41,129 54,129C115,129 149,182 169,239l122,348l-38,0l-62,-189C181,368 169,338 160,306l-4,0C144,338 131,371 121,398l-74,189l-39,0l132,-321l-8,-24C117,195 90,163 53,163C44,163 36,165 27,169z"/>
<glyph unicode="&#xE0AB;" horiz-adv-x="277" d="M19,269l240,0l0,33l-191,0l185,262l0,23l-213,0l0,-33l164,0l-185,-264z"/>
<glyph unicode="&#xE0AC;" horiz-adv-x="330" d="M183,647l34,0l-60,91l-44,0 z M182,270C229,270 262,287 289,304l-16,27C251,315 220,302 185,302C115,302 70,354 69,430l230,0C301,446 301,450 301,461C301,514 277,604 175,604C96,604 31,539 31,437C31,329 98,270 182,270 z M69,460C77,528 117,571 175,571C243,571 266,511 266,460z"/>
<glyph unicode="&#xE0AD;" horiz-adv-x="330" d="M135,647l34,0l71,91l-44,0 z M182,270C229,270 262,287 289,304l-16,27C251,315 220,302 185,302C115,302 70,354 69,430l230,0C301,446 301,450 301,461C301,514 277,604 175,604C96,604 31,539 31,437C31,329 98,270 182,270 z M69,460C77,528 117,571 175,571C243,571 266,511 266,460z"/>
<glyph unicode="&#xE0AE;" horiz-adv-x="330" d="M157,261C238,261 297,325 297,428C297,535 242,595 153,595C108,595 78,577 51,560l16,-27C91,549 117,562 153,562C224,562 260,510 259,440l-229,0C27,424 27,420 27,409C27,351 54,261 157,261 z M157,293C89,293 62,346 62,410l197,0C255,333 215,293 157,293z"/>
<glyph unicode="&#xE0AF;" horiz-adv-x="367" d="M76,434C76,507 123,562 179,562C208,562 240,551 272,522l0,-179C238,312 210,296 180,296C108,296 76,348 76,434 z M37,432C37,323 89,261 174,261C214,261 242,282 269,306l4,0l5,-37l31,0l0,318l-29,0l-5,-31l-4,0C244,581 214,595 178,595C103,595 37,532 37,432z"/>
<glyph unicode="&#xE0B0;" horiz-adv-x="367" d="M75,184l-16,-29C92,133 131,119 172,119C258,119 309,171 309,249l0,338l-29,0l-5,-31l-3,0C244,581 214,595 179,595C103,595 37,532 37,432C37,335 89,273 175,273C214,273 241,293 274,320l-2,-49l0,-19C272,192 236,153 173,153C139,153 105,163 75,184 z M180,307C109,307 76,360 76,434C76,507 123,561 180,561C208,561 240,550 272,522l0,-167C238,324 210,307 180,307z"/>
<glyph unicode="&#xE0B1;" horiz-adv-x="153" d="M58,269l37,0l0,473l-37,0z"/>
<glyph unicode="&#xB0;" horiz-adv-x="311" d="M156,447C215,447 270,491 270,565C270,640 215,684 156,684C97,684 42,640 42,565C42,491 97,447 156,447 z M156,479C109,479 76,516 76,565C76,616 109,653 156,653C203,653 236,616 236,565C236,516 203,479 156,479z"/>
<glyph unicode="&#xA4;" horiz-adv-x="479" d="M57,114l66,68C155,153 196,137 239,137C282,137 324,153 355,182l67,-68l26,28l-65,67C406,241 420,282 420,328C420,376 406,418 382,450l66,68l-26,28l-67,-69C324,505 282,521 239,521C196,521 154,505 123,477l-66,69l-27,-28l66,-68C72,418 58,376 58,328C58,282 72,241 96,209l-66,-67 z M102,328C102,420 165,484 239,484C314,484 376,420 376,328C376,237 314,174 239,174C165,174 102,237 102,328z"/>
<glyph unicode="$" horiz-adv-x="479" d="M402,580C368,616 330,646 265,650l0,99l-39,0l0,-99C144,641 85,579 85,495C85,292 374,347 374,150C374,77 328,27 244,27C175,27 121,63 83,97l-24,-31C98,29 157,-6 226,-11l0,-99l39,0l0,99C354,-3 419,58 419,153C419,381 130,322 130,497C130,563 177,612 246,612C308,612 338,589 376,552z"/>
<glyph unicode="&#xA3;" horiz-adv-x="479" d="M133,40l0,4C179,88 205,138 205,221C205,247 202,270 197,293l157,0l0,36l-165,0C175,381 157,428 157,481C157,554 200,612 282,612C335,612 369,586 397,553l29,27C396,618 351,651 282,651C177,651 112,586 112,481C112,429 130,379 144,329l-24,0l-66,-3l0,-33l100,0C159,270 163,246 163,221C163,144 131,69 57,27l0,-27l371,0l0,40z"/>
<glyph unicode="&#xA5;" horiz-adv-x="479" d="M30,639l172,-336l-152,0l0,-33l166,0l0,-71l-166,0l0,-34l166,0l0,-165l45,0l0,165l168,0l0,34l-168,0l0,71l168,0l0,33l-154,0l174,336l-46,0l-94,-193C286,402 267,358 242,309l-4,0C214,358 193,402 172,446l-94,193z"/>
<glyph unicode="&#x20AC;" horiz-adv-x="479" d="M445,107C406,53 366,26 311,26C215,26 153,111 136,246l238,0l0,33l-241,0C132,293 132,307 132,322C132,334 132,345 133,356l281,0l0,33l-278,0C151,528 217,613 323,613C369,613 406,586 435,546l29,27C435,615 383,651 323,651C194,651 107,552 89,389l-65,-4l0,-29l62,0C85,345 85,333 85,321C85,307 85,293 86,279l-62,-4l0,-29l65,0C109,87 191,-12 308,-12C382,-12 432,24 474,82z"/>
<glyph unicode="&#xA2;" horiz-adv-x="479" d="M255,121C164,134 107,207 107,311C107,416 169,488 255,502 z M412,173C380,144 338,121 289,119l0,385C334,502 370,482 400,455l24,28C393,513 352,541 289,543l0,109l-34,0l0,-111C148,530 62,449 62,311C62,174 142,92 255,81l0,-109l34,0l0,108C347,82 396,108 435,144z"/>
<glyph unicode="&#x192;" horiz-adv-x="479" d="M443,653C425,661 402,671 369,671C278,671 237,593 223,468l-7,-63l-32,0l-67,-4l0,-33l95,0l-28,-262C174,11 147,-59 76,-59C57,-59 39,-55 24,-48l-13,-34C28,-92 50,-98 76,-98C173,-98 214,-21 227,102l29,266l142,0l0,37l-138,0l7,67C276,553 300,632 369,632C397,632 415,623 431,617z"/>
<glyph unicode="&#x20A1;" horiz-adv-x="479" d="M274,610C284,612 294,613 305,613C318,613 330,611 341,607l-69,-580C248,30 226,39 207,53 z M179,79C136,130 112,215 112,322C112,467 158,569 241,602 z M427,107C390,56 353,29 302,26l68,568C388,582 404,565 418,545l29,27C429,597 404,620 374,634l14,115l-30,0l-12,-104C333,649 319,651 305,651C296,651 287,651 278,650l12,99l-31,0l-13,-105C134,614 65,496 65,321C65,184 106,80 173,27l-16,-137l31,0l14,119C222,-2 244,-8 268,-11l-12,-99l30,0l12,98C367,-9 416,26 456,82z"/>
<glyph unicode="&#x20A4;" horiz-adv-x="479" d="M133,40l0,4C179,88 205,138 205,221C205,230 205,238 204,246l150,0l0,34l-154,0C196,303 190,324 184,345l170,0l0,34l-179,0C165,413 157,446 157,481C157,554 200,612 282,612C335,612 369,586 397,553l29,27C396,618 351,651 282,651C177,651 112,586 112,481C112,446 120,412 129,379l-12,0l-63,-4l0,-30l86,0C146,324 152,302 157,280l-38,0l-65,-5l0,-29l108,0C163,238 163,229 163,221C163,144 131,69 57,27l0,-27l371,0l0,40z"/>
<glyph unicode="&#x20A6;" horiz-adv-x="479" d="M345,276l-69,0l-24,68l93,0l0,-63 z M353,54l-4,0l-61,189l58,0 z M134,276l0,68l76,0l24,-68 z M126,586l4,0l62,-190l7,-21l-66,0 z M459,344l0,31l-73,0l0,264l-41,0l0,-264l-104,0l-94,264l-54,0l0,-264l-77,-4l0,-27l77,0l0,-68l-77,-4l0,-29l77,0l0,-243l41,0l0,243l112,0l86,-243l54,0l0,243l73,0l0,33l-73,0l0,68z"/>
<glyph unicode="&#x20A7;" horiz-adv-x="479" d="M137,299l0,139l216,0C346,344 283,299 174,299 z M174,604C284,604 347,570 353,474l-216,0l0,130 z M464,474l-66,0C391,593 305,639 185,639l-91,0l0,-165l-80,-5l0,-31l80,0l0,-438l43,0l0,263l48,0C305,263 390,320 398,438l66,0z"/>
<glyph unicode="&#x20AB;" horiz-adv-x="479" d="M80,0l335,0l0,34l-335,0 z M343,206C305,162 268,144 230,144C154,144 113,203 113,297C113,374 166,437 234,437C277,437 304,422 343,386 z M384,595l0,78l-41,0l0,-78l-146,0l0,-34l146,0l0,-45l4,-93C312,454 283,474 232,474C146,474 69,404 69,295C69,173 130,107 224,107C275,107 313,132 343,164l3,0l5,-47l33,0l0,444l81,5l0,29z"/>
<glyph unicode="&#x20B1;" horiz-adv-x="479" d="M137,427l0,67l214,0C353,483 354,470 354,457C354,446 353,436 352,427 z M137,299l0,96l208,0C324,330 265,299 174,299 z M174,604C261,604 319,582 343,525l-206,0l0,79 z M464,525l-75,0C363,607 286,639 185,639l-91,0l0,-114l-80,-4l0,-27l80,0l0,-67l-80,-4l0,-28l80,0l0,-395l43,0l0,263l48,0C289,263 367,306 391,395l73,0l0,32l-67,0C398,437 399,447 399,457C399,470 398,482 396,494l68,0z"/>
<glyph unicode="&#x20B2;" horiz-adv-x="479" d="M277,313l0,-39l120,0l0,-196C376,51 329,27 279,27C165,27 100,143 100,322C100,500 169,613 291,613C338,613 375,586 405,546l29,27C405,613 356,649 298,651l0,98l-38,0l0,-100C132,632 52,509 52,321C52,126 135,-1 260,-11l0,-99l38,0l0,99C354,-6 403,17 440,60l0,253z"/>
<glyph unicode="&#x20B5;" horiz-adv-x="479" d="M274,27C171,39 112,153 112,322C112,485 170,593 274,610 z M427,107C392,59 357,32 310,27l0,586C354,611 389,585 417,546l29,27C418,614 368,649 310,651l0,99l-36,0l0,-101C145,632 65,509 65,321C65,126 147,-2 274,-11l0,-99l36,0l0,99C373,-5 418,30 456,82z"/>
<glyph unicode="&#x20B9;" horiz-adv-x="479" d="M443,639l-370,0l0,-38l75,0C252,601 317,572 331,499l-191,0l-67,-4l0,-30l260,0C331,365 263,320 148,320l-75,0l0,-39l82,0l197,-281l54,0l-201,283C307,295 376,355 379,465l64,0l0,34l-66,0C368,548 337,586 295,606l148,0z"/>
</font>
</svg>
