<?xml version="1.0" standalone="no"?>
<!DOCTYPE svg PUBLIC "-//W3C//DTD SVG 1.1//EN" "http://www.w3.org/Graphics/SVG/1.1/DTD/svg11.dtd">
<svg xmlns="http://www.w3.org/2000/svg">
<defs >
<font id="NotoSans" horiz-adv-x="1169" ><font-face
    font-family="Noto Sans"
    units-per-em="2048"
    panose-1="2 11 5 2 4 5 4 2 2 4"
    ascent="2189"
    descent="-600"
    alphabetic="0" />
<glyph unicode=" " horiz-adv-x="532" />
<glyph unicode="!" horiz-adv-x="785" d="M488 414H367L316 1462H539L488 414ZM299 111Q299 149 309 175T336 218T376 242T426 250Q452 250 475 243T516 219T543 176T553 111Q553 74 543 48T516 4T476 -21T426 -29Q399 -29 376 -21T336 4T309 47T299 111Z" />
<glyph unicode="&quot;" horiz-adv-x="1028" d="M462 1493L411 965H286L235 1493H462ZM822 1493L771 965H647L596 1493H822Z" />
<glyph unicode="#" horiz-adv-x="1337" d="M983 807L924 496H1196V361H897L828 0H684L755 361H470L400 0H259L325 361H70V496H351L413 807H144V941H437L505 1295H649L582 941H869L938 1295H1079L1010 941H1267V807H983ZM495 496H781L841 807H556L495 496Z" />
<glyph unicode="$" horiz-adv-x="1171" d="M1040 449Q1040 312 939 222T649 109V-119H518V100Q404 102 300 119T127 168V336Q202 301 310 276T518 248V676Q313 741 228 828T143 1053Q143 1185 244 1270T518 1374V1554H649V1376Q839 1371 1010 1300L954 1159Q799
1220 649 1231V809Q809 755 887 707T1003 598T1040 449ZM858 436Q858 508 811 550T649 633V258Q858 290 858 436ZM326 1055Q326 982 369 937T518 854V1227Q424 1211 375 1166T326 1055Z" />
<glyph unicode="%" horiz-adv-x="1695" d="M265 925Q265 805 300 745T413 685Q566 685 566 925Q566 1165 413 1165Q335 1165 300 1105T265 925ZM714 925Q714 839 697 770T642 652T548 579T413 554Q340 554 285 579T192 652T136 769T117 925Q117 1012 134 1081T187
1197T280 1269T413 1294Q487 1294 543 1270T637 1198T695 1081T714 925ZM1130 351Q1130 231 1165 172T1278 112Q1431 112 1431 351Q1431 591 1278 591Q1200 591 1165 532T1130 351ZM1578 351Q1578 264 1561 196T1507 79T1414 6T1278 -20Q1205 -20 1150 5T1057 79T1001
195T982 351Q982 438 999 507T1053 623T1145 695T1278 720Q1353 720 1409 695T1502 623T1559 507T1578 351ZM1324 1274L535 0H375L1166 1274H1324Z" />
<glyph unicode="&amp;" horiz-adv-x="1499" d="M422 1167Q422 1102 457 1037T573 893Q697 962 748 1025T799 1169Q799 1245 748 1291T616 1337Q527 1337 475 1290T422 1167ZM575 139Q802 139 958 285L532 698Q394 615 346 547T297 387Q297 274 374 207T575 139ZM109
381Q109 511 176 609T424 811Q347 898 315 948T264 1052T246 1165Q246 1313 345 1399T623 1485Q788 1485 882 1401T977 1169Q977 1060 909 969T684 786L1079 406Q1172 514 1223 731H1405Q1336 446 1196 291L1495 0H1251L1073 172Q959 70 838 25T569 -20Q354 -20
232 85T109 381Z" />
<glyph unicode="&apos;" horiz-adv-x="668" d="M462 1493L411 965H286L235 1493H462Z" />
<glyph unicode="(" horiz-adv-x="724" d="M140 691Q140 834 157 971T211 1236T303 1481T436 1703H602Q533 1594 479 1474T388 1224T333 960T315 689Q315 410 388 147T604 -338H436Q359 -232 304 -112T212 140T158 410T140 691Z" />
<glyph unicode=")" horiz-adv-x="724" d="M584 674Q584 531 567 394T513 129T421 -116T288 -338H122Q191 -229 245 -109T336 141T391 405T409 676Q409 955 336 1218T120 1703H288Q365 1597 420 1477T512 1225T566 955T584 674Z" />
<glyph unicode="*" horiz-adv-x="1243" d="M732 1525L689 1132L1086 1243L1112 1050L734 1022L979 696L801 600L625 958L467 600L283 696L525 1022L150 1050L179 1243L570 1132L527 1525H732Z" />
<glyph unicode="+" horiz-adv-x="1128" d="M489 585H102V735H489V1123H639V735H1026V585H639V199H489V585Z" />
<glyph unicode="," horiz-adv-x="512" d="M362 238L377 215Q363 161 344 100T301 -23T252 -146T201 -264H63Q78 -203 92 -137T120 -6T145 122T164 238H362Z" />
<glyph unicode="-" horiz-adv-x="696" d="M100 524V692H596V524H100Z" />
<glyph unicode="." horiz-adv-x="549" d="M147 111Q147 149 157 175T184 218T224 242T274 250Q300 250 323 243T364 219T391 176T401 111Q401 74 391 48T364 4T324 -21T274 -29Q247 -29 224 -21T184 4T157 47T147 111Z" />
<glyph unicode="/" horiz-adv-x="879" d="M793 1705L256 -339H86L625 1705H793Z" />
<glyph unicode="0" horiz-adv-x="1128" d="M1032 733Q1032 556 1007 416T925 179T779 31T563 -20Q445 -20 358 31T213 179T127 416T98 733Q98 910 123 1050T204 1286T348 1434T563 1485Q682 1485 770 1435T916 1288T1003 1051T1032 733ZM283 733Q283 583 298 471T346
285T432 173T563 135Q640 135 694 172T782 283T832 469T848 733Q848 883 833 995T783 1181T694 1292T563 1329Q486 1329 433 1292T346 1181T298 995T283 733Z" />
<glyph unicode="1" horiz-adv-x="1128" d="M711 0H535V913Q535 956 535 1005T537 1102T540 1195T543 1274Q526 1256 513 1243T487 1218T458 1193T422 1161L274 1040L178 1163L561 1462H711V0Z" />
<glyph unicode="2" horiz-adv-x="1128" d="M1008 0H96V156L446 537Q521 618 580 685T680 816T744 944T766 1085Q766 1144 749 1189T701 1265T626 1313T530 1329Q435 1329 359 1291T213 1192L111 1311Q151 1347 197 1378T296 1433T408 1469T532 1483Q628 1483 705
1456T837 1379T920 1256T950 1092Q950 1007 924 930T851 779T740 629T600 473L319 174V166H1008V0Z" />
<glyph unicode="3" horiz-adv-x="1128" d="M961 1120Q961 1047 938 987T874 883T774 811T645 770V764Q822 742 914 652T1006 416Q1006 320 974 240T875 102T708 12T469 -20Q360 -20 264 -3T82 59V229Q169 183 270 158T465 133Q557 133 624 153T734 210T798 301T819
422Q819 490 793 538T717 618T598 665T438 680H305V831H438Q519 831 582 851T687 908T752 996T774 1108Q774 1160 756 1201T705 1270T626 1314T524 1329Q417 1329 336 1296T180 1208L88 1333Q126 1364 172 1391T274 1438T391 1471T524 1483Q632 1483 713 1456T850
1381T933 1266T961 1120Z" />
<glyph unicode="4" horiz-adv-x="1128" d="M1087 328H874V0H698V328H23V487L686 1470H874V494H1087V328ZM698 494V850Q698 906 699 967T703 1087T707 1197T711 1282H702Q695 1262 685 1238T662 1189T636 1141T612 1102L201 494H698Z" />
<glyph unicode="5" horiz-adv-x="1128" d="M545 897Q644 897 729 870T878 788T978 654T1014 469Q1014 355 980 264T879 110T714 14T487 -20Q436 -20 387 -15T292 -1T205 24T131 59V231Q164 208 208 190T302 160T400 142T492 135Q571 135 633 153T738 211T804 309T827
449Q827 592 739 667T483 743Q456 743 425 741T362 734T302 726T252 717L162 774L217 1462H907V1296H375L336 877Q368 883 420 890T545 897Z" />
<glyph unicode="6" horiz-adv-x="1128" d="M113 625Q113 730 123 834T160 1033T233 1211T350 1353T520 1448T752 1483Q771 1483 794 1482T840 1479T885 1473T924 1464V1309Q889 1321 845 1327T758 1333Q668 1333 600 1312T481 1251T398 1158T343 1039T312 899T299
745H311Q331 781 359 812T426 866T511 902T618 915Q713 915 790 886T921 799T1004 660T1034 471Q1034 357 1003 266T914 112T774 14T590 -20Q490 -20 403 19T251 138T150 339T113 625ZM588 133Q648 133 697 153T783 215T838 320T858 471Q858 541 842 596T792 691T710
751T594 772Q527 772 472 749T377 688T317 602T295 506Q295 439 313 373T368 253T460 167T588 133Z" />
<glyph unicode="7" horiz-adv-x="1128" d="M281 0L844 1296H90V1462H1030V1317L475 0H281Z" />
<glyph unicode="8" horiz-adv-x="1128" d="M565 1485Q649 1485 723 1463T854 1397T944 1287T977 1133Q977 1066 957 1012T902 915T819 837T715 774Q773 743 828 705T927 620T997 513T1024 381Q1024 289 991 215T897 88T752 8T565 -20Q455 -20 370 7T226 84T137
208T106 373Q106 448 128 508T189 616T279 701T389 766Q340 797 297 833T223 915T173 1014T154 1135Q154 1222 187 1287T278 1397T409 1463T565 1485ZM285 371Q285 318 301 274T351 198T437 149T561 131Q631 131 684 148T774 198T828 277T846 379Q846 431 827 473T771
551T683 619T569 682L539 696Q413 636 349 559T285 371ZM563 1333Q457 1333 395 1280T332 1126Q332 1069 349 1028T398 955T472 898T567 848Q615 870 657 896T731 955T781 1030T799 1126Q799 1227 736 1280T563 1333Z" />
<glyph unicode="9" horiz-adv-x="1128" d="M1028 838Q1028 733 1018 629T981 429T908 252T791 109T621 15T389 -20Q370 -20 347 -19T301 -16T256 -10T217 -2V154Q252 141 296 135T383 129Q518 129 605 176T743 303T815 491T842 717H829Q809 681 781 650T715 596T629
560T522 547Q427 547 350 576T219 663T136 802T106 991Q106 1105 137 1196T226 1351T366 1449T551 1483Q652 1483 739 1444T890 1325T991 1124T1028 838ZM553 1329Q493 1329 444 1309T358 1247T303 1142T283 991Q283 921 299 866T349 771T431 711T547 690Q615 690
670 713T764 774T824 860T846 956Q846 1023 828 1089T773 1209T681 1296T553 1329Z" />
<glyph unicode=":" horiz-adv-x="603" d="M175 111Q175 149 185 175T212 218T252 242T302 250Q328 250 351 243T392 219T419 176T429 111Q429 74 419 48T392 4T352 -21T302 -29Q275 -29 252 -21T212 4T185 47T175 111ZM175 987Q175 1026 185 1052T212 1095T252
1119T302 1126Q328 1126 351 1119T392 1096T419 1053T429 987Q429 950 419 924T392 881T352 856T302 848Q275 848 252 856T212 881T185 924T175 987Z" />
<glyph unicode=";" horiz-adv-x="603" d="M390 238L405 215Q391 161 372 100T329 -23T280 -146T229 -264H91Q106 -203 120 -137T148 -6T173 122T192 238H390ZM175 987Q175 1026 185 1052T212 1095T252 1119T302 1126Q328 1126 351 1119T392 1096T419 1053T429
987Q429 950 419 924T392 881T352 856T302 848Q275 848 252 856T212 881T185 924T175 987Z" />
<glyph unicode="&lt;" horiz-adv-x="1128" d="M1026 157L102 581V683L1026 1164V1004L291 640L1026 318V157Z" />
<glyph unicode="=" horiz-adv-x="1128" d="M102 791V940H1026V791H102ZM102 381V531H1026V381H102Z" />
<glyph unicode="&gt;" horiz-adv-x="1128" d="M102 318L838 640L102 1004V1164L1026 683V581L102 157V318Z" />
<glyph unicode="?" horiz-adv-x="1060" d="M390 414V451Q390 508 397 554T424 640T477 718T560 799Q608 840 642 873T697 941T729 1015T740 1108Q740 1156 725 1195T682 1263T611 1307T512 1323Q429 1323 354 1297T209 1237L146 1382Q227 1424 321 1453T512 1483Q605
1483 679 1458T806 1384T886 1267T914 1110Q914 1043 901 991T860 893T793 806T699 717Q647 672 614 639T562 574T536 509T529 432V414H390ZM342 111Q342 149 352 175T379 218T419 242T469 250Q495 250 518 243T559 219T586 176T596 111Q596 74 586 48T559 4T519
-21T469 -29Q442 -29 419 -21T379 4T352 47T342 111Z" />
<glyph unicode="@" horiz-adv-x="1841" d="M1722 731Q1722 591 1678 473T1553 289T1368 223Q1283 223 1225 272T1153 401H1143Q1104 318 1029 271T854 223Q702 223 615 324T528 604Q528 737 581 842T735 1006T963 1065Q1032 1065 1120 1053T1276 1016L1253 548V526Q1253
350 1380 350Q1469 350 1524 455T1579 733Q1579 912 1506 1047T1297 1254T987 1327Q767 1327 604 1236T353 975T266 580Q266 278 425 116T887 -47Q1099 -47 1327 41V-98Q1127 -182 887 -182Q523 -182 321 17T119 573Q119 832 226 1035T532 1350T987 1462Q1202 1462
1370 1371T1630 1113T1722 731ZM688 600Q688 350 881 350Q1086 350 1104 659L1116 915Q1043 936 965 936Q836 936 762 847T688 600Z" />
<glyph unicode="A" horiz-adv-x="1309" d="M1116 0L940 453H360L186 0H0L571 1468H737L1307 0H1116ZM885 616L721 1059L651 1278Q621 1158 588 1059L422 616H885Z" />
<glyph unicode="B" horiz-adv-x="1331" d="M199 1462H616Q910 1462 1040 1375T1171 1100Q1171 970 1100 886T893 776V766Q1062 737 1141 649T1221 416Q1221 220 1087 110T713 0H199V1462ZM383 840H653Q825 840 903 895T981 1079Q981 1199 896 1252T625 1305H383V840ZM383
686V156H678Q854 156 939 224T1024 430Q1024 561 934 623T664 686H383Z" />
<glyph unicode="C" horiz-adv-x="1294" d="M825 1321Q589 1321 454 1163T319 731Q319 448 450 295T823 141Q979 141 1174 199V39Q1081 5 995 -7T797 -20Q474 -20 300 176T125 733Q125 959 208 1129T451 1391T827 1483Q1059 1483 1231 1397L1157 1241Q982 1321 825 1321Z" />
<glyph unicode="D" horiz-adv-x="1495" d="M1370 745Q1370 383 1173 192T606 0H199V1462H649Q990 1462 1180 1275T1370 745ZM1176 739Q1176 1018 1039 1161T623 1305H383V158H582Q1176 158 1176 739Z" />
<glyph unicode="E" horiz-adv-x="1139" d="M1016 0H199V1462H1016V1300H383V844H979V684H383V162H1016V0Z" />
<glyph unicode="F" horiz-adv-x="1063" d="M383 0H199V1462H1016V1300H383V782H977V621H383V0Z" />
<glyph unicode="G" horiz-adv-x="1491" d="M834 772H1339V55Q1223 18 1103 -1T825 -20Q491 -20 308 178T125 731Q125 960 216 1131T478 1392T883 1483Q1117 1483 1319 1397L1249 1237Q1056 1321 872 1321Q611 1321 464 1163T317 731Q317 441 458 290T868 139Q1015
139 1155 174V608H834V772Z" />
<glyph unicode="H" horiz-adv-x="1518" d="M1317 0H1133V682H383V0H199V1462H383V844H1133V1462H1317V0Z" />
<glyph unicode="I" horiz-adv-x="694" d="M610 0H82V106L254 145V1315L82 1356V1462H610V1356L438 1315V145L610 106V0Z" />
<glyph unicode="J" horiz-adv-x="559" d="M-8 -389Q-102 -389 -160 -362V-207Q-89 -227 -12 -227Q88 -227 138 -167T188 8V1462H373V23Q373 -175 275 -282T-8 -389Z" />
<glyph unicode="K" horiz-adv-x="1268" d="M1268 0H1051L532 698L383 567V0H199V1462H383V741L509 880L1030 1462H1245L666 825L1268 0Z" />
<glyph unicode="L" horiz-adv-x="1073" d="M199 0V1462H383V164H1022V0H199Z" />
<glyph unicode="M" horiz-adv-x="1858" d="M844 0L362 1282H354Q369 1122 369 887V0H199V1462H471L922 264H930L1389 1462H1659V0H1477V899Q1477 1049 1491 1280H1483L995 0H844Z" />
<glyph unicode="N" horiz-adv-x="1556" d="M1358 0H1143L360 1214H352L357 1133Q369 951 369 817V0H199V1462H412L457 1391L937 649L1192 252H1200Q1198 276 1192 423T1186 637V1462H1358V0Z" />
<glyph unicode="O" horiz-adv-x="1599" d="M1475 733Q1475 382 1298 181T801 -20Q478 -20 302 177T125 735Q125 1092 300 1288T803 1485Q1121 1485 1298 1286T1475 733ZM319 733Q319 443 442 291T801 139Q1036 139 1158 289T1280 733Q1280 1026 1159 1174T803
1323Q565 1323 442 1173T319 733Z" />
<glyph unicode="P" horiz-adv-x="1239" d="M1135 1032Q1135 808 982 689T551 569H383V0H199V1462H586Q1135 1462 1135 1032ZM383 727H530Q748 727 846 797T944 1024Q944 1165 853 1235T569 1305H383V727Z" />
<glyph unicode="Q" horiz-adv-x="1599" d="M1475 733Q1475 456 1364 271T1049 16L1399 -348H1135L852 -18L801 -20Q478 -20 302 177T125 735Q125 1092 300 1288T803 1485Q1121 1485 1298 1286T1475 733ZM319 733Q319 443 442 291T801 139Q1036 139 1158 289T1280
733Q1280 1026 1159 1174T803 1323Q565 1323 442 1173T319 733Z" />
<glyph unicode="R" horiz-adv-x="1274" d="M383 760H602Q780 760 862 830T944 1038Q944 1176 861 1239T592 1303H383V760ZM383 604V0H199V1462H602Q874 1462 1004 1359T1135 1047Q1135 756 842 655L1243 0H1028L674 604H383Z" />
<glyph unicode="S" horiz-adv-x="1124" d="M1028 391Q1028 200 890 90T506 -20Q246 -20 104 49V225Q197 185 307 162T514 139Q678 139 761 202T844 375Q844 448 814 495T714 583T500 676Q297 750 210 850T123 1110Q123 1281 251 1382T590 1483Q809 1483 993 1401L936
1243Q748 1321 586 1321Q456 1321 383 1265T309 1108Q309 1036 337 989T429 902T629 813Q792 753 872 697T990 567T1028 391Z" />
<glyph unicode="T" horiz-adv-x="1139" d="M662 0H477V1300H20V1462H1116V1300H662V0Z" />
<glyph unicode="U" horiz-adv-x="1497" d="M1311 1462V516Q1311 266 1160 123T741 -20Q476 -20 330 124T184 520V1462H369V514Q369 335 464 237T752 139Q933 139 1030 236T1128 516V1462H1311Z" />
<glyph unicode="V" horiz-adv-x="1229" d="M0 1462H193L522 524Q585 346 614 205Q639 331 707 528L1034 1462H1229L707 0H522L0 1462Z" />
<glyph unicode="W" horiz-adv-x="1905" d="M1489 0H1303L1018 958Q955 1172 944 1247Q928 1132 874 952L598 0H412L25 1462H217L444 569Q490 394 514 221Q536 385 592 580L850 1462H1040L1309 573Q1361 400 1389 221Q1405 359 1460 571L1686 1462H1878L1489 0Z" />
<glyph unicode="X" horiz-adv-x="1200" d="M1192 0H983L596 635L203 0H8L494 762L39 1462H244L602 889L963 1462H1157L705 766L1192 0Z" />
<glyph unicode="Y" horiz-adv-x="1159" d="M580 743L961 1462H1159L672 567V0H487V559L0 1462H201L580 743Z" />
<glyph unicode="Z" horiz-adv-x="1171" d="M1092 0H78V139L848 1298H102V1462H1071V1323L301 164H1092V0Z" />
<glyph unicode="[" horiz-adv-x="729" d="M618 -339H221V1704H618V1561H386V-196H618V-339Z" />
<glyph unicode="\" horiz-adv-x="879" d="M254 1703L793 -339H625L86 1703H254Z" />
<glyph unicode="]" horiz-adv-x="729" d="M110 -196H341V1560H110V1703H508V-339H110V-196Z" />
<glyph unicode="^" horiz-adv-x="1128" d="M60 549L519 1473H621L1068 549H907L570 1284L221 549H60Z" />
<glyph unicode="_" horiz-adv-x="842" d="M846 -324H-4V-184H846V-324Z" />
<glyph unicode="`" horiz-adv-x="1188" d="M799 1241H678Q603 1301 514 1396T387 1548V1569H602Q634 1503 693 1412T799 1266V1241Z" />
<glyph unicode="a" horiz-adv-x="1149" d="M852 0L817 156H809Q727 53 646 17T440 -20Q278 -20 186 65T94 305Q94 639 621 655L807 662V727Q807 852 753 911T580 971Q493 971 416 945T270 887L215 1022Q298 1066 396 1091T590 1116Q789 1116 886 1028T983 748V0H852ZM481
125Q632 125 718 206T805 438V537L643 530Q454 523 368 470T281 303Q281 217 333 171T481 125Z" />
<glyph unicode="b" horiz-adv-x="1260" d="M694 1116Q911 1116 1029 967T1147 549Q1147 277 1027 129T694 -20Q583 -20 496 20T354 139H340Q309 19 303 0H174V1556H354V1178Q354 1065 344 952H354Q465 1116 694 1116ZM664 967Q498 967 426 873T354 555V547Q354
322 427 226T668 129Q816 129 888 237T961 551Q961 759 888 863T664 967Z" />
<glyph unicode="c" horiz-adv-x="983" d="M614 -20Q377 -20 245 125T113 543Q113 819 246 968T627 1118Q707 1118 785 1102T915 1059L860 909Q721 961 623 961Q457 961 378 857T299 545Q299 346 378 241T612 135Q757 135 897 199V39Q783 -20 614 -20Z" />
<glyph unicode="d" horiz-adv-x="1260" d="M563 -20Q349 -20 231 128T113 547Q113 816 231 967T565 1118Q786 1118 905 956H918Q915 976 910 1036T905 1118V1556H1085V0H940L913 147H905Q790 -20 563 -20ZM592 129Q756 129 831 218T907 512V545Q907 774 831 871T590
969Q451 969 375 859T299 543Q299 339 374 234T592 129Z" />
<glyph unicode="e" horiz-adv-x="1155" d="M641 -20Q394 -20 254 129T113 541Q113 805 244 961T598 1118Q805 1118 928 985T1051 623V514H299Q304 327 394 230T649 133Q737 133 816 148T1001 209V51Q910 12 830 -4T641 -20ZM596 971Q467 971 392 888T303 657H862Q860
811 791 891T596 971Z" />
<glyph unicode="f" horiz-adv-x="705" d="M680 958H403V0H223V958H31V1042L223 1104V1167Q223 1367 310 1467T580 1567Q685 1567 793 1530L745 1389Q652 1419 582 1419Q491 1419 447 1359T403 1169V1098H680V958Z" />
<glyph unicode="g" horiz-adv-x="1260" d="M592 127Q758 127 833 216T909 504V547Q909 767 833 867T588 967Q450 967 375 858T299 545Q299 341 372 234T592 127ZM907 10L913 145H905Q794 -20 565 -20Q352 -20 233 128T113 547Q113 812 233 965T563 1118Q786 1118
907 952H918L942 1098H1085V-18Q1085 -254 966 -373T594 -492Q354 -492 199 -422V-256Q359 -342 604 -342Q744 -342 825 -260T907 -33V10Z" />
<glyph unicode="h" horiz-adv-x="1266" d="M922 0V702Q922 836 863 901T676 967Q509 967 432 874T354 567V0H174V1556H354V1100Q354 1010 344 946H356Q405 1026 495 1071T698 1116Q898 1116 999 1021T1100 715V0H922Z" />
<glyph unicode="i" horiz-adv-x="528" d="M354 0H174V1098H354V0ZM160 1395Q160 1455 190 1482T266 1509Q308 1509 339 1482T371 1395Q371 1336 340 1308T266 1280Q221 1280 191 1308T160 1395Z" />
<glyph unicode="j" horiz-adv-x="528" d="M45 -492Q-49 -492 -113 -467V-322Q-44 -342 23 -342Q101 -342 137 -300T174 -170V1098H354V-164Q354 -328 276 -410T45 -492ZM160 1395Q160 1455 190 1482T266 1509Q308 1509 339 1482T371 1395Q371 1336 340 1308T266
1280Q221 1280 191 1308T160 1395Z" />
<glyph unicode="k" horiz-adv-x="1094" d="M352 565L413 643L483 727L834 1098H1044L600 629L1075 0H858L477 512L352 403V0H174V1556H352V743L344 565H352Z" />
<glyph unicode="l" horiz-adv-x="528" d="M354 0H174V1556H354V0Z" />
<glyph unicode="m" horiz-adv-x="1915" d="M1571 0V707Q1571 967 1348 967Q1195 967 1123 878T1051 606V0H872V707Q872 837 818 902T647 967Q495 967 425 874T354 569V0H174V1098H319L346 948H356Q403 1028 488 1073T680 1118Q938 1118 1016 934H1026Q1079 1022
1170 1070T1378 1118Q1564 1118 1656 1022T1749 715V0H1571Z" />
<glyph unicode="n" horiz-adv-x="1266" d="M922 0V702Q922 836 863 901T676 967Q507 967 431 874T354 569V0H174V1098H319L346 948H356Q407 1029 499 1073T702 1118Q904 1118 1002 1020T1100 715V0H922Z" />
<glyph unicode="o" horiz-adv-x="1239" d="M1128 551Q1128 282 992 131T616 -20Q467 -20 352 49T175 249T113 551Q113 819 247 968T623 1118Q855 1118 991 966T1128 551ZM299 551Q299 344 380 237T621 129Q778 129 860 236T942 551Q942 758 860 862T618 967Q299
967 299 551Z" />
<glyph unicode="p" horiz-adv-x="1260" d="M694 -20Q473 -20 354 139H342L346 98Q354 20 354 -41V-492H174V1098H322L346 948H354Q418 1038 502 1078T696 1118Q910 1118 1028 970T1147 551Q1147 282 1028 131T694 -20ZM664 967Q501 967 429 875T354 586V551Q354
328 428 229T668 129Q806 129 883 241T961 553Q961 754 884 860T664 967Z" />
<glyph unicode="q" horiz-adv-x="1260" d="M594 129Q755 129 829 217T907 508V545Q907 772 831 870T590 969Q449 969 374 858T299 543Q299 342 373 236T594 129ZM559 -20Q347 -20 230 130T113 547Q113 815 232 966T565 1118Q790 1118 907 948H915L942 1098H1085V-492H905V-23Q905
87 915 147H903Q788 -20 559 -20Z" />
<glyph unicode="r" horiz-adv-x="846" d="M686 1118Q759 1118 815 1106L793 940Q732 954 674 954Q587 954 513 906T396 774T354 586V0H174V1098H322L342 897H350Q413 1006 499 1062T686 1118Z" />
<glyph unicode="s" horiz-adv-x="981" d="M889 303Q889 149 774 65T451 -20Q234 -20 106 49V213Q287 125 455 125Q591 125 653 169T715 287Q715 352 656 397T444 500Q289 560 226 602T134 698T104 827Q104 962 214 1040T516 1118Q703 1118 866 1044L805 901Q638
971 504 971Q392 971 334 936T276 838Q276 778 326 739T559 629Q696 578 761 534T858 435T889 303Z" />
<glyph unicode="t" horiz-adv-x="739" d="M541 127Q576 127 623 134T694 150V12Q669 1 617 -9T510 -20Q188 -20 188 319V958H33V1044L190 1116L262 1350H369V1098H686V958H369V324Q369 229 414 178T541 127Z" />
<glyph unicode="u" horiz-adv-x="1266" d="M344 1098V391Q344 258 403 194T588 129Q757 129 834 223T911 526V1098H1092V0H944L918 145H909Q860 66 770 23T561 -20Q363 -20 263 75T162 379V1098H344Z" />
<glyph unicode="v" horiz-adv-x="1040" d="M416 0L0 1098H193L426 451Q495 256 514 160H522Q525 173 529 189T540 225T614 451L848 1098H1040L623 0H416Z" />
<glyph unicode="w" horiz-adv-x="1610" d="M1071 0L883 618Q857 695 807 909H799Q757 714 725 616L528 0H324L23 1098H209Q313 693 367 482T432 184H440L454 246Q485 389 514 479L709 1098H905L1094 479Q1104 444 1115 405T1137 327T1155 252T1167 186H1176Q1185
262 1249 512L1403 1098H1587L1282 0H1071Z" />
<glyph unicode="x" horiz-adv-x="1083" d="M434 561L55 1098H260L543 684L823 1098H1026L647 561L1047 0H842L543 438L240 0H37L434 561Z" />
<glyph unicode="y" horiz-adv-x="1044" d="M2 1098H195L432 473Q507 269 524 174H532Q541 211 573 312T627 475L850 1098H1044L571 -152Q502 -334 407 -413T172 -492Q97 -492 23 -475V-332Q73 -344 143 -344Q229 -344 289 -297T387 -150L444 -4L2 1098Z" />
<glyph unicode="z" horiz-adv-x="963" d="M883 0H80V119L670 958H115V1098H868V963L287 139H883V0Z" />
<glyph unicode="{" horiz-adv-x="800" d="M507 -37Q507 -84 520 -114T556 -161T614 -184T691 -192V-339Q615 -338 551 -322T441 -271T368 -182T341 -51V421Q341 522 277 564T90 606V758Q212 758 276 800T341 943V1416Q341 1492 367 1546T440 1634T551 1685T691
1703V1557Q648 1556 614 1550T557 1526T520 1479T507 1402V931Q507 828 452 768T291 687V676Q397 656 452 597T507 433V-37Z" />
<glyph unicode="|" horiz-adv-x="1105" d="M479 1703H626V-339H479V1703Z" />
<glyph unicode="}" horiz-adv-x="770" d="M293 433Q293 537 348 596T510 676V687Q403 707 348 767T293 931V1402Q293 1449 281 1479T245 1526T187 1549T110 1557V1703Q185 1702 249 1686T360 1635T433 1546T460 1416V943Q460 892 476 857T524 800T603 768T711
758V606Q588 606 524 564T460 421V-51Q460 -128 434 -182T361 -270T250 -321T110 -339V-192Q152 -191 186 -185T244 -161T280 -114T293 -37V433Z" />
<glyph unicode="~" horiz-adv-x="1128" d="M530 590Q493 606 466 617T416 634T373 643T330 646Q302 646 272 637T213 611T155 572T102 525V687Q202 795 350 795Q379 795 404 793T456 784T517 765T598 732Q635 716 662 705T713 688T757 679T799 676Q827 676 857
685T916 711T974 750T1026 797V635Q927 527 778 527Q749 527 724 529T672 538T611 557T530 590Z" />
<glyph unicode="&#xa0;" horiz-adv-x="532" />
<glyph unicode="&#xa1;" horiz-adv-x="551" d="M213 676H332L383 -373H162L213 676ZM401 979Q401 912 369 877T274 842Q212 842 180 876T147 979Q147 1045 181 1081T274 1118Q333 1118 367 1082T401 979Z" />
<glyph unicode="&#xa2;" horiz-adv-x="1171" d="M975 240Q862 183 721 178V-20H584V184Q380 215 283 353T186 741Q186 1249 584 1311V1483H723V1319Q875 1313 993 1260L940 1110Q797 1163 696 1163Q529 1163 450 1059T371 743Q371 530 451 433T688 336Q777 336
844 353T975 397V240Z" />
<glyph unicode="&#xa3;" horiz-adv-x="1171" d="M684 1481Q874 1481 1047 1397L983 1253Q816 1331 688 1331Q571 1331 510 1271T449 1075V791H866V655H449V442Q449 346 417 278T309 164H1096V0H66V152Q268 199 268 440V655H72V791H268V1094Q268 1275 380 1378T684 1481Z" />
<glyph unicode="&#xa4;" horiz-adv-x="1171" d="M184 723Q184 840 256 948L121 1087L221 1184L356 1053Q456 1124 586 1124Q707 1124 811 1053L948 1184L1047 1087L915 950Q987 839 987 723Q987 593 915 494L1044 358L948 262L811 393Q708 324 586 324Q454 324
356 395L221 264L123 360L256 496Q184 604 184 723ZM322 723Q322 612 398 536T586 459Q697 459 774 535T852 723Q852 837 775 914T586 991Q476 991 399 914T322 723Z" />
<glyph unicode="&#xa5;" horiz-adv-x="1171" d="M584 748L950 1462H1139L727 694H981V563H672V395H981V264H672V0H496V264H186V395H496V563H186V694H436L29 1462H219L584 748Z" />
<glyph unicode="&#xa6;" horiz-adv-x="1128" d="M489 1556H639V776H489V1556ZM489 287H639V-494H489V287Z" />
<glyph unicode="&#xa7;" horiz-adv-x="1051" d="M137 809Q137 896 180 963T299 1067Q225 1107 184 1163T143 1303Q143 1426 247 1496T547 1567Q639 1567 714 1553T897 1497L842 1360Q745 1399 677 1413T535 1427Q420 1427 366 1398T311 1307Q311 1251 369 1209T582
1112Q764 1045 839 969T915 784Q915 604 762 512Q913 432 913 287Q913 145 795 68T467 -10Q257 -10 121 57V211Q208 172 303 150T475 127Q603 127 672 164T741 272Q741 333 688 372T477 473Q280 546 209 621T137 809ZM291 829Q291 778 318 741T405 668T629 571Q760
647 760 758Q760 839 690 893T438 1006Q373 988 332 939T291 829Z" />
<glyph unicode="&#xa8;" horiz-adv-x="1188" d="M305 1395Q305 1448 333 1471T401 1495Q440 1495 469 1472T498 1395Q498 1342 469 1317T401 1292Q361 1292 333 1317T305 1395ZM690 1395Q690 1448 718 1471T784 1495Q823 1495 852 1472T881 1395Q881 1342 852
1317T784 1292Q746 1292 718 1317T690 1395Z" />
<glyph unicode="&#xa9;" horiz-adv-x="1704" d="M893 1055Q774 1055 707 970T639 731Q639 574 697 490T891 406Q986 406 1106 453V322Q1046 295 997 284T883 272Q690 272 585 392T479 731Q479 940 590 1064T891 1188Q1021 1188 1143 1126L1083 1001Q977 1055 893
1055ZM100 731Q100 931 200 1106T475 1382T852 1483Q1052 1483 1227 1383T1503 1108T1604 731Q1604 534 1507 361T1235 84T852 -20Q645 -20 470 83T198 360T100 731ZM209 731Q209 559 295 410T530 175T852 88Q1024 88 1173 174T1408 409T1495 731Q1495 903 1409
1052T1174 1287T852 1374Q680 1374 531 1288T296 1053T209 731Z" />
<glyph unicode="&#xaa;" horiz-adv-x="731" d="M535 797L510 883Q416 784 276 784Q179 784 123 834T66 987Q66 1090 145 1143T389 1202L504 1206V1251Q504 1312 465 1342T358 1372Q258 1372 152 1319Q126 1381 106 1419Q228 1479 362 1479Q496 1479 563 1424T631
1247V797H535ZM197 987Q197 889 307 889Q504 889 504 1067V1114L406 1110Q295 1106 246 1078T197 987Z" />
<glyph unicode="&#xab;" horiz-adv-x="1042" d="M82 553L426 965L555 891L268 541L555 190L426 115L82 526V553ZM487 553L836 965L963 891L676 541L963 190L836 115L487 526V553Z" />
<glyph unicode="&#xac;" horiz-adv-x="1171" d="M1065 795V262H920V649H102V795H1065Z" />
<glyph unicode="&#xad;" horiz-adv-x="659" d="M82 469V629H578V469H82Z" />
<glyph unicode="&#xae;" horiz-adv-x="1704" d="M727 764H829Q910 764 954 804T999 909Q999 982 958 1014T827 1047H727V764ZM1157 913Q1157 830 1114 770T997 680L1235 283H1059L854 637H727V283H571V1178H834Q1002 1178 1079 1113T1157 913ZM100 731Q100 931
200 1106T475 1382T852 1483Q1052 1483 1227 1383T1503 1108T1604 731Q1604 534 1507 361T1235 84T852 -20Q645 -20 470 83T198 360T100 731ZM209 731Q209 559 295 410T530 175T852 88Q1024 88 1173 174T1408 409T1495 731Q1495 903 1409 1052T1174 1287T852 1374Q680
1374 531 1288T296 1053T209 731Z" />
<glyph unicode="&#xaf;" horiz-adv-x="696" d="M100 524V692H596V524H100Z" />
<glyph unicode="&#xb0;" horiz-adv-x="877" d="M123 1167Q123 1302 215 1392T438 1483Q571 1483 662 1391T754 1167Q754 1036 662 945T438 854Q308 854 216 943T123 1167ZM246 1167Q246 1088 303 1032T440 975Q521 975 576 1032T631 1167Q631 1247 576 1303T440
1360Q360 1360 303 1304T246 1167Z" />
<glyph unicode="&#xb1;" horiz-adv-x="1171" d="M657 801H1065V655H657V233H510V655H102V801H510V1225H657V801ZM102 0V145H1065V0H102Z" />
<glyph unicode="&#xb2;" horiz-adv-x="717" d="M627 586H49V696L285 926Q412 1049 447 1105T483 1231Q483 1296 446 1329T346 1362Q284 1362 234 1338T131 1274L59 1368Q192 1481 348 1481Q480 1481 554 1416T629 1239Q629 1193 617 1154T578 1074T511 987T227
713H627V586Z" />
<glyph unicode="&#xb3;" horiz-adv-x="717" d="M631 1255Q631 1104 479 1047Q657 1003 657 838Q657 711 565 640T303 569Q151 569 35 627V756Q177 686 305 686Q510 686 510 842Q510 983 285 983H168V1096H285Q388 1096 435 1135T483 1239Q483 1298 445 1331T340
1364Q236 1364 113 1286L39 1380Q113 1435 185 1458T338 1481Q474 1481 552 1421T631 1255Z" />
<glyph unicode="&#xb4;" horiz-adv-x="1188" d="M387 1266Q425 1314 483 1402T582 1569H799V1548Q755 1484 662 1387T506 1241H387V1266Z" />
<glyph unicode="&#xb5;" horiz-adv-x="1276" d="M354 389Q354 129 600 129Q769 129 845 222T922 526V1098H1102V0H956L928 147H918Q809 -20 588 -20Q442 -20 352 72H344Q354 -2 354 -172V-492H174V1098H354V389Z" />
<glyph unicode="&#xb6;" horiz-adv-x="1341" d="M1124 -260H1006V1442H797V-260H678V559Q616 541 532 541Q316 541 215 666T113 1042Q113 1302 222 1429T563 1556H1124V-260Z" />
<glyph unicode="&#xb7;" horiz-adv-x="549" d="M147 723Q147 788 179 825T272 862Q334 862 367 825T401 723Q401 659 367 622T272 584Q213 584 180 621T147 723Z" />
<glyph unicode="&#xb8;" horiz-adv-x="461" d="M434 -285Q434 -384 359 -438T131 -492Q66 -492 29 -481V-369Q65 -379 137 -379Q212 -379 250 -360T289 -289Q289 -200 102 -176L190 0H309L256 -109Q434 -147 434 -285Z" />
<glyph unicode="&#xb9;" horiz-adv-x="717" d="M342 1462H492V586H346V1151Q346 1218 354 1333Q323 1305 300 1286T147 1174L76 1274L342 1462Z" />
<glyph unicode="&#xba;" horiz-adv-x="770" d="M707 1133Q707 970 621 877T383 784Q238 784 152 876T66 1133Q66 1298 150 1388T387 1479Q536 1479 621 1388T707 1133ZM195 1133Q195 1012 239 953T385 893Q485 893 530 952T575 1133Q575 1254 530 1312T385 1370Q285
1370 240 1312T195 1133Z" />
<glyph unicode="&#xbb;" horiz-adv-x="1042" d="M961 526L612 115L485 190L772 541L485 891L612 965L961 553V526ZM553 526L207 115L80 190L367 541L80 891L207 965L553 553V526Z" />
<glyph unicode="&#xbc;" horiz-adv-x="1618" d="M1304 1462L411 0H258L1151 1462H1304ZM593 1462H743V586H597V1151Q597 1218 605 1333Q574 1305 551 1286T398 1174L327 1274L593 1462ZM1507 197H1382V1H1229V197H829V304L1233 883H1382V320H1507V197ZM1229 320V511Q1229
618 1235 718Q1227 700 1137 560L973 320H1229Z" />
<glyph unicode="&#xbd;" horiz-adv-x="1618" d="M1243 1462L350 0H197L1090 1462H1243ZM568 1462H718V586H572V1151Q572 1218 580 1333Q549 1305 526 1286T373 1174L302 1274L568 1462ZM1489 1H911V111L1147 341Q1274 464 1309 520T1345 646Q1345 711 1308 744T1208
777Q1146 777 1096 753T993 689L921 783Q1054 896 1210 896Q1342 896 1416 831T1491 654Q1491 608 1479 569T1440 489T1373 402T1089 128H1489V1Z" />
<glyph unicode="&#xbe;" horiz-adv-x="1618" d="M1394 1462L501 0H348L1241 1462H1394ZM1581 197H1456V1H1303V197H903V304L1307 883H1456V320H1581V197ZM1303 320V511Q1303 618 1309 718Q1301 700 1211 560L1047 320H1303ZM884 1255Q884 1104 732 1047Q910 1003
910 838Q910 711 818 640T556 569Q404 569 288 627V756Q430 686 558 686Q763 686 763 842Q763 983 538 983H421V1096H538Q641 1096 688 1135T736 1239Q736 1298 698 1331T593 1364Q489 1364 366 1286L292 1380Q366 1435 438 1458T591 1481Q727 1481 805 1421T884
1255Z" />
<glyph unicode="&#xbf;" horiz-adv-x="889" d="M602 676V623Q602 506 565 431T428 272Q295 161 260 106T225 -33Q225 -129 288 -183T471 -238Q630 -238 801 -150L864 -295Q666 -393 465 -393Q271 -393 161 -300T51 -37Q51 36 71 92T132 200T293 354Q396 444 426
499T457 643V676H602ZM649 979Q649 842 522 842Q460 842 429 877T397 979Q397 1052 433 1085T522 1118Q576 1118 612 1085T649 979Z" />
<glyph unicode="&#xc0;" horiz-adv-x="1309" d="M1116 0L940 453H360L186 0H0L571 1468H737L1307 0H1116ZM885 616L721 1059L651 1278Q621 1158 588 1059L422 616H885ZM745 1579H624Q549 1639 460 1734T333 1886V1907H548Q580 1841 639 1750T745 1604V1579Z" />
<glyph unicode="&#xc1;" horiz-adv-x="1309" d="M1116 0L940 453H360L186 0H0L571 1468H737L1307 0H1116ZM885 616L721 1059L651 1278Q621 1158 588 1059L422 616H885ZM526 1604Q564 1652 622 1740T721 1907H938V1886Q894 1822 801 1725T645 1579H526V1604Z" />
<glyph unicode="&#xc2;" horiz-adv-x="1309" d="M1116 0L940 453H360L186 0H0L571 1468H737L1307 0H1116ZM885 616L721 1059L651 1278Q621 1158 588 1059L422 616H885ZM299 1602Q424 1736 475 1800T551 1907H735Q787 1806 991 1602V1579H864Q774 1632 641 1763Q510
1635 422 1579H299V1602Z" />
<glyph unicode="&#xc3;" horiz-adv-x="1309" d="M1116 0L940 453H360L186 0H0L571 1468H737L1307 0H1116ZM885 616L721 1059L651 1278Q621 1158 588 1059L422 616H885ZM798 1581Q755 1581 714 1599T634 1639T558 1679T487 1698Q438 1698 413 1669T374 1579H270Q282
1701 340 1771T495 1841Q540 1841 582 1823T664 1783T739 1743T807 1724Q855 1724 879 1753T919 1843H1022Q1010 1724 952 1653T798 1581Z" />
<glyph unicode="&#xc4;" horiz-adv-x="1309" d="M1116 0L940 453H360L186 0H0L571 1468H737L1307 0H1116ZM885 616L721 1059L651 1278Q621 1158 588 1059L422 616H885ZM362 1733Q362 1786 390 1809T458 1833Q497 1833 526 1810T555 1733Q555 1680 526 1655T458
1630Q418 1630 390 1655T362 1733ZM747 1733Q747 1786 775 1809T841 1833Q880 1833 909 1810T938 1733Q938 1680 909 1655T841 1630Q803 1630 775 1655T747 1733Z" />
<glyph unicode="&#xc5;" horiz-adv-x="1309" d="M877 1585Q877 1516 847 1467T766 1393L1307 0H1116L940 453H360L186 0H0L539 1386Q486 1411 456 1461T426 1583Q426 1681 486 1739T649 1798Q751 1798 814 1739T877 1585ZM885 616L721 1059L651 1278Q621 1158
588 1059L422 616H885ZM764 1583Q764 1637 732 1667T649 1698Q600 1698 568 1668T535 1583Q535 1529 564 1499T649 1468Q700 1468 732 1498T764 1583Z" />
<glyph unicode="&#xc6;" horiz-adv-x="1804" d="M1681 0H920V453H408L188 0H-2L692 1462H1681V1300H1104V844H1642V684H1104V162H1681V0ZM479 616H920V1298H801L479 616Z" />
<glyph unicode="&#xc7;" horiz-adv-x="1294" d="M825 1321Q589 1321 454 1163T319 731Q319 448 450 295T823 141Q979 141 1174 199V39Q1081 5 995 -7T797 -20Q474 -20 300 176T125 733Q125 959 208 1129T451 1391T827 1483Q1059 1483 1231 1397L1157 1241Q982
1321 825 1321ZM950 -285Q950 -384 875 -438T647 -492Q582 -492 545 -481V-369Q581 -379 653 -379Q728 -379 766 -360T805 -289Q805 -200 618 -176L706 0H825L772 -109Q950 -147 950 -285Z" />
<glyph unicode="&#xc8;" horiz-adv-x="1139" d="M1016 0H199V1462H1016V1300H383V844H979V684H383V162H1016V0ZM726 1579H605Q530 1639 441 1734T314 1886V1907H529Q561 1841 620 1750T726 1604V1579Z" />
<glyph unicode="&#xc9;" horiz-adv-x="1139" d="M1016 0H199V1462H1016V1300H383V844H979V684H383V162H1016V0ZM453 1604Q491 1652 549 1740T648 1907H865V1886Q821 1822 728 1725T572 1579H453V1604Z" />
<glyph unicode="&#xca;" horiz-adv-x="1139" d="M1016 0H199V1462H1016V1300H383V844H979V684H383V162H1016V0ZM255 1602Q380 1736 431 1800T507 1907H691Q743 1806 947 1602V1579H820Q730 1632 597 1763Q466 1635 378 1579H255V1602Z" />
<glyph unicode="&#xcb;" horiz-adv-x="1139" d="M1016 0H199V1462H1016V1300H383V844H979V684H383V162H1016V0ZM319 1733Q319 1786 347 1809T415 1833Q454 1833 483 1810T512 1733Q512 1680 483 1655T415 1630Q375 1630 347 1655T319 1733ZM704 1733Q704 1786
732 1809T798 1833Q837 1833 866 1810T895 1733Q895 1680 866 1655T798 1630Q760 1630 732 1655T704 1733Z" />
<glyph unicode="&#xcc;" horiz-adv-x="694" d="M610 0H82V106L254 145V1315L82 1356V1462H610V1356L438 1315V145L610 106V0ZM472 1579H351Q276 1639 187 1734T60 1886V1907H275Q307 1841 366 1750T472 1604V1579Z" />
<glyph unicode="&#xcd;" horiz-adv-x="694" d="M610 0H82V106L254 145V1315L82 1356V1462H610V1356L438 1315V145L610 106V0ZM236 1604Q274 1652 332 1740T431 1907H648V1886Q604 1822 511 1725T355 1579H236V1604Z" />
<glyph unicode="&#xce;" horiz-adv-x="694" d="M610 0H82V106L254 145V1315L82 1356V1462H610V1356L438 1315V145L610 106V0ZM-3 1602Q122 1736 173 1800T249 1907H433Q485 1806 689 1602V1579H562Q472 1632 339 1763Q208 1635 120 1579H-3V1602Z" />
<glyph unicode="&#xcf;" horiz-adv-x="694" d="M610 0H82V106L254 145V1315L82 1356V1462H610V1356L438 1315V145L610 106V0ZM60 1733Q60 1786 88 1809T156 1833Q195 1833 224 1810T253 1733Q253 1680 224 1655T156 1630Q116 1630 88 1655T60 1733ZM445 1733Q445
1786 473 1809T539 1833Q578 1833 607 1810T636 1733Q636 1680 607 1655T539 1630Q501 1630 473 1655T445 1733Z" />
<glyph unicode="&#xd0;" horiz-adv-x="1495" d="M1370 745Q1370 386 1174 193T604 0H213V643H61V803H213V1462H649Q990 1462 1180 1274T1370 745ZM1176 739Q1176 1019 1037 1162T623 1305H397V803H762V643H397V158H582Q1176 158 1176 739Z" />
<glyph unicode="&#xd1;" horiz-adv-x="1556" d="M1358 0H1143L360 1214H352L357 1133Q369 951 369 817V0H199V1462H412L457 1391L937 649L1192 252H1200Q1198 276 1192 423T1186 637V1462H1358V0ZM940 1581Q897 1581 856 1599T776 1639T700 1679T629 1698Q580
1698 555 1669T516 1579H412Q424 1701 482 1771T637 1841Q682 1841 724 1823T806 1783T881 1743T949 1724Q997 1724 1021 1753T1061 1843H1164Q1152 1724 1094 1653T940 1581Z" />
<glyph unicode="&#xd2;" horiz-adv-x="1599" d="M1475 733Q1475 382 1298 181T801 -20Q478 -20 302 177T125 735Q125 1092 300 1288T803 1485Q1121 1485 1298 1286T1475 733ZM319 733Q319 443 442 291T801 139Q1036 139 1158 289T1280 733Q1280 1026 1159 1174T803
1323Q565 1323 442 1173T319 733ZM918 1579H797Q722 1639 633 1734T506 1886V1907H721Q753 1841 812 1750T918 1604V1579Z" />
<glyph unicode="&#xd3;" horiz-adv-x="1599" d="M1475 733Q1475 382 1298 181T801 -20Q478 -20 302 177T125 735Q125 1092 300 1288T803 1485Q1121 1485 1298 1286T1475 733ZM319 733Q319 443 442 291T801 139Q1036 139 1158 289T1280 733Q1280 1026 1159 1174T803
1323Q565 1323 442 1173T319 733ZM657 1604Q695 1652 753 1740T852 1907H1069V1886Q1025 1822 932 1725T776 1579H657V1604Z" />
<glyph unicode="&#xd4;" horiz-adv-x="1599" d="M1475 733Q1475 382 1298 181T801 -20Q478 -20 302 177T125 735Q125 1092 300 1288T803 1485Q1121 1485 1298 1286T1475 733ZM319 733Q319 443 442 291T801 139Q1036 139 1158 289T1280 733Q1280 1026 1159 1174T803
1323Q565 1323 442 1173T319 733ZM440 1602Q565 1736 616 1800T692 1907H876Q928 1806 1132 1602V1579H1005Q915 1632 782 1763Q651 1635 563 1579H440V1602Z" />
<glyph unicode="&#xd5;" horiz-adv-x="1599" d="M1475 733Q1475 382 1298 181T801 -20Q478 -20 302 177T125 735Q125 1092 300 1288T803 1485Q1121 1485 1298 1286T1475 733ZM319 733Q319 443 442 291T801 139Q1036 139 1158 289T1280 733Q1280 1026 1159 1174T803
1323Q565 1323 442 1173T319 733ZM944 1581Q901 1581 860 1599T780 1639T704 1679T633 1698Q584 1698 559 1669T520 1579H416Q428 1701 486 1771T641 1841Q686 1841 728 1823T810 1783T885 1743T953 1724Q1001 1724 1025 1753T1065 1843H1168Q1156 1724 1098 1653T944
1581Z" />
<glyph unicode="&#xd6;" horiz-adv-x="1599" d="M1475 733Q1475 382 1298 181T801 -20Q478 -20 302 177T125 735Q125 1092 300 1288T803 1485Q1121 1485 1298 1286T1475 733ZM319 733Q319 443 442 291T801 139Q1036 139 1158 289T1280 733Q1280 1026 1159 1174T803
1323Q565 1323 442 1173T319 733ZM516 1733Q516 1786 544 1809T612 1833Q651 1833 680 1810T709 1733Q709 1680 680 1655T612 1630Q572 1630 544 1655T516 1733ZM901 1733Q901 1786 929 1809T995 1833Q1034 1833 1063 1810T1092 1733Q1092 1680 1063 1655T995 1630Q957
1630 929 1655T901 1733Z" />
<glyph unicode="&#xd7;" horiz-adv-x="1128" d="M459 658L141 977L246 1082L563 764L885 1082L989 979L668 658L987 338L885 236L563 553L246 238L143 341L459 658Z" />
<glyph unicode="&#xd8;" horiz-adv-x="1599" d="M1475 733Q1475 382 1298 181T801 -20Q569 -20 422 76L324 -63L199 18L305 170Q125 368 125 735Q125 1092 300 1288T803 1485Q1007 1485 1167 1393L1262 1528L1386 1444L1282 1298Q1475 1095 1475 733ZM1280 733Q1280
997 1176 1147L520 217Q634 139 801 139Q1036 139 1158 289T1280 733ZM319 733Q319 474 416 328L1069 1251Q960 1323 803 1323Q565 1323 442 1173T319 733Z" />
<glyph unicode="&#xd9;" horiz-adv-x="1497" d="M1311 1462V516Q1311 266 1160 123T741 -20Q476 -20 330 124T184 520V1462H369V514Q369 335 464 237T752 139Q933 139 1030 236T1128 516V1462H1311ZM865 1579H744Q669 1639 580 1734T453 1886V1907H668Q700 1841
759 1750T865 1604V1579Z" />
<glyph unicode="&#xda;" horiz-adv-x="1497" d="M1311 1462V516Q1311 266 1160 123T741 -20Q476 -20 330 124T184 520V1462H369V514Q369 335 464 237T752 139Q933 139 1030 236T1128 516V1462H1311ZM600 1604Q638 1652 696 1740T795 1907H1012V1886Q968 1822 875
1725T719 1579H600V1604Z" />
<glyph unicode="&#xdb;" horiz-adv-x="1497" d="M1311 1462V516Q1311 266 1160 123T741 -20Q476 -20 330 124T184 520V1462H369V514Q369 335 464 237T752 139Q933 139 1030 236T1128 516V1462H1311ZM387 1602Q512 1736 563 1800T639 1907H823Q875 1806 1079 1602V1579H952Q862
1632 729 1763Q598 1635 510 1579H387V1602Z" />
<glyph unicode="&#xdc;" horiz-adv-x="1497" d="M1311 1462V516Q1311 266 1160 123T741 -20Q476 -20 330 124T184 520V1462H369V514Q369 335 464 237T752 139Q933 139 1030 236T1128 516V1462H1311ZM457 1733Q457 1786 485 1809T553 1833Q592 1833 621 1810T650
1733Q650 1680 621 1655T553 1630Q513 1630 485 1655T457 1733ZM842 1733Q842 1786 870 1809T936 1833Q975 1833 1004 1810T1033 1733Q1033 1680 1004 1655T936 1630Q898 1630 870 1655T842 1733Z" />
<glyph unicode="&#xdd;" horiz-adv-x="1159" d="M580 743L961 1462H1159L672 567V0H487V559L0 1462H201L580 743ZM442 1604Q480 1652 538 1740T637 1907H854V1886Q810 1822 717 1725T561 1579H442V1604Z" />
<glyph unicode="&#xde;" horiz-adv-x="1239" d="M1135 782Q1135 556 985 437T549 317H383V0H199V1462H383V1208H580Q861 1208 998 1103T1135 782ZM383 473H530Q751 473 847 544T944 772Q944 916 853 983T565 1051H383V473Z" />
<glyph unicode="&#xdf;" horiz-adv-x="1292" d="M1069 1264Q1069 1125 926 1013Q847 951 815 915T782 844Q782 804 814 771T963 662Q1100 570 1150 492T1200 313Q1200 152 1102 66T819 -20Q632 -20 522 49V211Q586 171 665 148T813 125Q1024 125 1024 301Q1024
372 984 424T831 547Q713 622 661 684T608 834Q608 897 642 949T748 1055Q822 1110 854 1156T887 1253Q887 1331 821 1374T627 1417Q354 1417 354 1196V0H174V1196Q174 1377 288 1472T627 1567Q837 1567 953 1487T1069 1264Z" />
<glyph unicode="&#xe0;" horiz-adv-x="1149" d="M852 0L817 156H809Q727 53 646 17T440 -20Q278 -20 186 65T94 305Q94 639 621 655L807 662V727Q807 852 753 911T580 971Q493 971 416 945T270 887L215 1022Q298 1066 396 1091T590 1116Q789 1116 886 1028T983
748V0H852ZM481 125Q632 125 718 206T805 438V537L643 530Q454 523 368 470T281 303Q281 217 333 171T481 125ZM943 1241H822Q747 1301 658 1396T531 1548V1569H746Q778 1503 837 1412T943 1266V1241Z" />
<glyph unicode="&#xe1;" horiz-adv-x="1149" d="M852 0L817 156H809Q727 53 646 17T440 -20Q278 -20 186 65T94 305Q94 639 621 655L807 662V727Q807 852 753 911T580 971Q493 971 416 945T270 887L215 1022Q298 1066 396 1091T590 1116Q789 1116 886 1028T983
748V0H852ZM481 125Q632 125 718 206T805 438V537L643 530Q454 523 368 470T281 303Q281 217 333 171T481 125ZM436 1266Q474 1314 532 1402T631 1569H848V1548Q804 1484 711 1387T555 1241H436V1266Z" />
<glyph unicode="&#xe2;" horiz-adv-x="1149" d="M852 0L817 156H809Q727 53 646 17T440 -20Q278 -20 186 65T94 305Q94 639 621 655L807 662V727Q807 852 753 911T580 971Q493 971 416 945T270 887L215 1022Q298 1066 396 1091T590 1116Q789 1116 886 1028T983
748V0H852ZM481 125Q632 125 718 206T805 438V537L643 530Q454 523 368 470T281 303Q281 217 333 171T481 125ZM480 1264Q605 1398 656 1462T732 1569H916Q968 1468 1172 1264V1241H1045Q955 1294 822 1425Q691 1297 603 1241H480V1264Z" />
<glyph unicode="&#xe3;" horiz-adv-x="1149" d="M852 0L817 156H809Q727 53 646 17T440 -20Q278 -20 186 65T94 305Q94 639 621 655L807 662V727Q807 852 753 911T580 971Q493 971 416 945T270 887L215 1022Q298 1066 396 1091T590 1116Q789 1116 886 1028T983
748V0H852ZM481 125Q632 125 718 206T805 438V537L643 530Q454 523 368 470T281 303Q281 217 333 171T481 125ZM984 1243Q941 1243 900 1261T820 1301T744 1341T673 1360Q624 1360 599 1331T560 1241H456Q468 1363 526 1433T681 1503Q726 1503 768 1485T850 1445T925
1405T993 1386Q1041 1386 1065 1415T1105 1505H1208Q1196 1386 1138 1315T984 1243Z" />
<glyph unicode="&#xe4;" horiz-adv-x="1149" d="M852 0L817 156H809Q727 53 646 17T440 -20Q278 -20 186 65T94 305Q94 639 621 655L807 662V727Q807 852 753 911T580 971Q493 971 416 945T270 887L215 1022Q298 1066 396 1091T590 1116Q789 1116 886 1028T983
748V0H852ZM481 125Q632 125 718 206T805 438V537L643 530Q454 523 368 470T281 303Q281 217 333 171T481 125ZM535 1395Q535 1448 563 1471T631 1495Q670 1495 699 1472T728 1395Q728 1342 699 1317T631 1292Q591 1292 563 1317T535 1395ZM920 1395Q920 1448 948
1471T1014 1495Q1053 1495 1082 1472T1111 1395Q1111 1342 1082 1317T1014 1292Q976 1292 948 1317T920 1395Z" />
<glyph unicode="&#xe5;" horiz-adv-x="1149" d="M852 0L817 156H809Q727 53 646 17T440 -20Q278 -20 186 65T94 305Q94 639 621 655L807 662V727Q807 852 753 911T580 971Q493 971 416 945T270 887L215 1022Q298 1066 396 1091T590 1116Q789 1116 886 1028T983
748V0H852ZM481 125Q632 125 718 206T805 438V537L643 530Q454 523 368 470T281 303Q281 217 333 171T481 125ZM1068 1460Q1068 1359 1006 1300T841 1241Q738 1241 678 1299T618 1458Q618 1556 678 1614T841 1673Q942 1673 1005 1614T1068 1460ZM955 1458Q955 1512
923 1542T841 1573Q791 1573 759 1543T726 1458Q726 1404 755 1374T841 1343Q892 1343 923 1373T955 1458Z" />
<glyph unicode="&#xe6;" horiz-adv-x="1769" d="M94 305Q94 639 594 655L778 662V731Q778 853 722 912T549 971Q410 971 242 887L186 1022Q257 1062 358 1089T563 1116Q691 1116 773 1075T899 940Q953 1025 1038 1071T1235 1118Q1432 1118 1548 983T1665 627V516H963Q971
133 1280 133Q1368 133 1445 149T1616 209V51Q1528 12 1452 -4T1274 -20Q983 -20 858 211Q776 87 677 34T442 -20Q278 -20 186 65T94 305ZM281 303Q281 211 333 168T471 125Q611 125 692 206T774 438V537L621 530Q444 523 363 470T281 303ZM1233 971Q1114 971 1046
891T967 657H1475Q1475 809 1413 890T1233 971Z" />
<glyph unicode="&#xe7;" horiz-adv-x="983" d="M614 -20Q377 -20 245 125T113 543Q113 819 246 968T627 1118Q707 1118 785 1102T915 1059L860 909Q721 961 623 961Q457 961 378 857T299 545Q299 346 378 241T612 135Q757 135 897 199V39Q783 -20 614 -20ZM766
-285Q766 -384 691 -438T463 -492Q398 -492 361 -481V-369Q397 -379 469 -379Q544 -379 582 -360T621 -289Q621 -200 434 -176L522 0H641L588 -109Q766 -147 766 -285Z" />
<glyph unicode="&#xe8;" horiz-adv-x="1155" d="M641 -20Q394 -20 254 129T113 541Q113 805 244 961T598 1118Q805 1118 928 985T1051 623V514H299Q304 327 394 230T649 133Q737 133 816 148T1001 209V51Q910 12 830 -4T641 -20ZM596 971Q467 971 392 888T303
657H862Q860 811 791 891T596 971ZM980 1241H859Q784 1301 695 1396T568 1548V1569H783Q815 1503 874 1412T980 1266V1241Z" />
<glyph unicode="&#xe9;" horiz-adv-x="1155" d="M641 -20Q394 -20 254 129T113 541Q113 805 244 961T598 1118Q805 1118 928 985T1051 623V514H299Q304 327 394 230T649 133Q737 133 816 148T1001 209V51Q910 12 830 -4T641 -20ZM596 971Q467 971 392 888T303
657H862Q860 811 791 891T596 971ZM467 1266Q505 1314 563 1402T662 1569H879V1548Q835 1484 742 1387T586 1241H467V1266Z" />
<glyph unicode="&#xea;" horiz-adv-x="1155" d="M641 -20Q394 -20 254 129T113 541Q113 805 244 961T598 1118Q805 1118 928 985T1051 623V514H299Q304 327 394 230T649 133Q737 133 816 148T1001 209V51Q910 12 830 -4T641 -20ZM596 971Q467 971 392 888T303
657H862Q860 811 791 891T596 971ZM509 1264Q634 1398 685 1462T761 1569H945Q997 1468 1201 1264V1241H1074Q984 1294 851 1425Q720 1297 632 1241H509V1264Z" />
<glyph unicode="&#xeb;" horiz-adv-x="1155" d="M641 -20Q394 -20 254 129T113 541Q113 805 244 961T598 1118Q805 1118 928 985T1051 623V514H299Q304 327 394 230T649 133Q737 133 816 148T1001 209V51Q910 12 830 -4T641 -20ZM596 971Q467 971 392 888T303
657H862Q860 811 791 891T596 971ZM315 1395Q315 1448 343 1471T411 1495Q450 1495 479 1472T508 1395Q508 1342 479 1317T411 1292Q371 1292 343 1317T315 1395ZM700 1395Q700 1448 728 1471T794 1495Q833 1495 862 1472T891 1395Q891 1342 862 1317T794 1292Q756
1292 728 1317T700 1395Z" />
<glyph unicode="&#xec;" horiz-adv-x="528" d="M354 0H174V1098H354V0ZM368 1241H247Q172 1301 83 1396T-44 1548V1569H171Q203 1503 262 1412T368 1266V1241Z" />
<glyph unicode="&#xed;" horiz-adv-x="528" d="M354 0H174V1098H354V0ZM167 1266Q205 1314 263 1402T362 1569H579V1548Q535 1484 442 1387T286 1241H167V1266Z" />
<glyph unicode="&#xee;" horiz-adv-x="528" d="M354 0H174V1098H354V0ZM-81 1264Q44 1398 95 1462T171 1569H355Q407 1468 611 1264V1241H484Q394 1294 261 1425Q130 1297 42 1241H-81V1264Z" />
<glyph unicode="&#xef;" horiz-adv-x="528" d="M354 0H174V1098H354V0ZM-22 1395Q-22 1448 6 1471T74 1495Q113 1495 142 1472T171 1395Q171 1342 142 1317T74 1292Q34 1292 6 1317T-22 1395ZM363 1395Q363 1448 391 1471T457 1495Q496 1495 525 1472T554 1395Q554
1342 525 1317T457 1292Q419 1292 391 1317T363 1395Z" />
<glyph unicode="&#xf0;" horiz-adv-x="1239" d="M1128 563Q1128 281 995 131T616 -20Q391 -20 252 115T113 477Q113 706 242 837T594 969Q819 969 913 850L922 854Q863 1068 668 1245L401 1092L324 1204L553 1335Q467 1393 369 1444L442 1567Q598 1494 700 1419L936
1556L1014 1446L811 1329Q962 1189 1045 992T1128 563ZM946 514Q946 657 859 740T621 823Q455 823 375 737T295 471Q295 306 379 217T621 127Q790 127 868 226T946 514Z" />
<glyph unicode="&#xf1;" horiz-adv-x="1266" d="M922 0V702Q922 836 863 901T676 967Q507 967 431 874T354 569V0H174V1098H319L346 948H356Q407 1029 499 1073T702 1118Q904 1118 1002 1020T1100 715V0H922ZM802 1243Q759 1243 718 1261T638 1301T562 1341T491
1360Q442 1360 417 1331T378 1241H274Q286 1363 344 1433T499 1503Q544 1503 586 1485T668 1445T743 1405T811 1386Q859 1386 883 1415T923 1505H1026Q1014 1386 956 1315T802 1243Z" />
<glyph unicode="&#xf2;" horiz-adv-x="1239" d="M1128 551Q1128 282 992 131T616 -20Q467 -20 352 49T175 249T113 551Q113 819 247 968T623 1118Q855 1118 991 966T1128 551ZM299 551Q299 344 380 237T621 129Q778 129 860 236T942 551Q942 758 860 862T618 967Q299
967 299 551ZM1007 1241H886Q811 1301 722 1396T595 1548V1569H810Q842 1503 901 1412T1007 1266V1241Z" />
<glyph unicode="&#xf3;" horiz-adv-x="1239" d="M1128 551Q1128 282 992 131T616 -20Q467 -20 352 49T175 249T113 551Q113 819 247 968T623 1118Q855 1118 991 966T1128 551ZM299 551Q299 344 380 237T621 129Q778 129 860 236T942 551Q942 758 860 862T618 967Q299
967 299 551ZM477 1266Q515 1314 573 1402T672 1569H889V1548Q845 1484 752 1387T596 1241H477V1266Z" />
<glyph unicode="&#xf4;" horiz-adv-x="1239" d="M1128 551Q1128 282 992 131T616 -20Q467 -20 352 49T175 249T113 551Q113 819 247 968T623 1118Q855 1118 991 966T1128 551ZM299 551Q299 344 380 237T621 129Q778 129 860 236T942 551Q942 758 860 862T618 967Q299
967 299 551ZM272 1264Q397 1398 448 1462T524 1569H708Q760 1468 964 1264V1241H837Q747 1294 614 1425Q483 1297 395 1241H272V1264Z" />
<glyph unicode="&#xf5;" horiz-adv-x="1239" d="M1128 551Q1128 282 992 131T616 -20Q467 -20 352 49T175 249T113 551Q113 819 247 968T623 1118Q855 1118 991 966T1128 551ZM299 551Q299 344 380 237T621 129Q778 129 860 236T942 551Q942 758 860 862T618 967Q299
967 299 551ZM1031 1243Q988 1243 947 1261T867 1301T791 1341T720 1360Q671 1360 646 1331T607 1241H503Q515 1363 573 1433T728 1503Q773 1503 815 1485T897 1445T972 1405T1040 1386Q1088 1386 1112 1415T1152 1505H1255Q1243 1386 1185 1315T1031 1243Z" />
<glyph unicode="&#xf6;" horiz-adv-x="1239" d="M1128 551Q1128 282 992 131T616 -20Q467 -20 352 49T175 249T113 551Q113 819 247 968T623 1118Q855 1118 991 966T1128 551ZM299 551Q299 344 380 237T621 129Q778 129 860 236T942 551Q942 758 860 862T618 967Q299
967 299 551ZM330 1395Q330 1448 358 1471T426 1495Q465 1495 494 1472T523 1395Q523 1342 494 1317T426 1292Q386 1292 358 1317T330 1395ZM715 1395Q715 1448 743 1471T809 1495Q848 1495 877 1472T906 1395Q906 1342 877 1317T809 1292Q771 1292 743 1317T715
1395Z" />
<glyph unicode="&#xf7;" horiz-adv-x="1128" d="M102 585V735H1026V585H102ZM449 320Q449 355 458 378T482 417T518 438T563 445Q586 445 607 439T644 417T669 379T678 320Q678 287 669 264T644 225T607 202T563 195Q539 195 519 202T483 224T458 263T449 320ZM449
1018Q449 1053 458 1076T482 1115T518 1136T563 1143Q586 1143 607 1137T644 1115T669 1077T678 1018Q678 985 669 962T644 923T607 900T563 893Q539 893 519 900T483 922T458 961T449 1018Z" />
<glyph unicode="&#xf8;" horiz-adv-x="1239" d="M1128 551Q1128 282 992 131T616 -20Q465 -20 352 47L270 -68L152 12L244 139Q113 295 113 551Q113 819 247 968T623 1118Q774 1118 891 1044L971 1159L1092 1081L999 952Q1128 797 1128 551ZM299 551Q299 385 348
289L799 915Q726 967 618 967Q299 967 299 551ZM942 551Q942 703 895 803L444 176Q513 129 621 129Q778 129 860 236T942 551Z" />
<glyph unicode="&#xf9;" horiz-adv-x="1266" d="M344 1098V391Q344 258 403 194T588 129Q757 129 834 223T911 526V1098H1092V0H944L918 145H909Q860 66 770 23T561 -20Q363 -20 263 75T162 379V1098H344ZM993 1241H872Q797 1301 708 1396T581 1548V1569H796Q828
1503 887 1412T993 1266V1241Z" />
<glyph unicode="&#xfa;" horiz-adv-x="1266" d="M344 1098V391Q344 258 403 194T588 129Q757 129 834 223T911 526V1098H1092V0H944L918 145H909Q860 66 770 23T561 -20Q363 -20 263 75T162 379V1098H344ZM504 1266Q542 1314 600 1402T699 1569H916V1548Q872 1484
779 1387T623 1241H504V1266Z" />
<glyph unicode="&#xfb;" horiz-adv-x="1266" d="M344 1098V391Q344 258 403 194T588 129Q757 129 834 223T911 526V1098H1092V0H944L918 145H909Q860 66 770 23T561 -20Q363 -20 263 75T162 379V1098H344ZM280 1264Q405 1398 456 1462T532 1569H716Q768 1468 972
1264V1241H845Q755 1294 622 1425Q491 1297 403 1241H280V1264Z" />
<glyph unicode="&#xfc;" horiz-adv-x="1266" d="M344 1098V391Q344 258 403 194T588 129Q757 129 834 223T911 526V1098H1092V0H944L918 145H909Q860 66 770 23T561 -20Q363 -20 263 75T162 379V1098H344ZM338 1395Q338 1448 366 1471T434 1495Q473 1495 502 1472T531
1395Q531 1342 502 1317T434 1292Q394 1292 366 1317T338 1395ZM723 1395Q723 1448 751 1471T817 1495Q856 1495 885 1472T914 1395Q914 1342 885 1317T817 1292Q779 1292 751 1317T723 1395Z" />
<glyph unicode="&#xfd;" horiz-adv-x="1044" d="M2 1098H195L432 473Q507 269 524 174H532Q541 211 573 312T627 475L850 1098H1044L571 -152Q502 -334 407 -413T172 -492Q97 -492 23 -475V-332Q73 -344 143 -344Q229 -344 289 -297T387 -150L444 -4L2 1098ZM410
1266Q448 1314 506 1402T605 1569H822V1548Q778 1484 685 1387T529 1241H410V1266Z" />
<glyph unicode="&#xfe;" horiz-adv-x="1260" d="M356 950Q423 1041 506 1079T696 1118Q909 1118 1028 969T1147 551Q1147 282 1028 131T696 -20Q474 -20 354 139H342Q354 7 354 -33V-492H174V1556H354V1098Q354 1028 348 950H356ZM666 967Q505 967 431 878T354
590V551Q354 328 428 229T668 129Q961 129 961 553Q961 761 890 864T666 967Z" />
<glyph unicode="&#xff;" horiz-adv-x="1044" d="M2 1098H195L432 473Q507 269 524 174H532Q541 211 573 312T627 475L850 1098H1044L571 -152Q502 -334 407 -413T172 -492Q97 -492 23 -475V-332Q73 -344 143 -344Q229 -344 289 -297T387 -150L444 -4L2 1098ZM490
1395Q490 1448 518 1471T586 1495Q625 1495 654 1472T683 1395Q683 1342 654 1317T586 1292Q546 1292 518 1317T490 1395ZM875 1395Q875 1448 903 1471T969 1495Q1008 1495 1037 1472T1066 1395Q1066 1342 1037 1317T969 1292Q931 1292 903 1317T875 1395Z" />
<glyph unicode="&#x2013;" horiz-adv-x="1024" d="M82 535V703H942V535H82Z" />
<glyph unicode="&#x2014;" horiz-adv-x="2048" d="M82 535V703H1966V535H82Z" />
<glyph unicode="&#x2018;" horiz-adv-x="639" d="M182 992L168 1014Q182 1068 201 1129T244 1252T293 1375T344 1493H481Q466 1432 452 1366T424 1235T400 1107T381 992H182Z" />
<glyph unicode="&#x2019;" horiz-adv-x="638" d="M465 1493L479 1471Q465 1416 446 1356T403 1233T354 1109T303 992H166Q180 1052 194 1118T222 1250T247 1378T266 1493H465Z" />
<glyph unicode="&#x201a;" horiz-adv-x="512" d="M358 238L373 215Q325 29 197 -264H63Q130 -5 166 238H358Z" />
<glyph unicode="&#x201c;" horiz-adv-x="1023" d="M568 992L554 1014Q568 1068 587 1129T630 1252T679 1375T730 1493H867Q852 1432 838 1366T810 1235T786 1107T767 992H568ZM183 992L169 1014Q183 1068 202 1129T245 1252T294 1375T345 1493H482Q467 1432 453
1366T425 1235T401 1107T382 992H183Z" />
<glyph unicode="&#x201d;" horiz-adv-x="1023" d="M465 1493L479 1471Q465 1416 446 1356T403 1233T354 1109T303 992H166Q180 1052 194 1118T222 1250T247 1378T266 1493H465ZM850 1493L864 1471Q850 1416 831 1356T788 1233T739 1109T688 992H551Q565 1052 579
1118T607 1250T632 1378T651 1493H850Z" />
<glyph unicode="&#x201e;" horiz-adv-x="852" d="M322 238L336 215Q288 29 160 -264H27Q92 -14 129 238H322ZM700 238L715 215Q667 29 539 -264H403Q430 -160 461 -13T508 238H700Z" />
<glyph unicode="&#x2022;" horiz-adv-x="770" d="M158 748Q158 870 216 935T385 1001Q495 1001 553 936T612 748Q612 626 553 560T385 494Q275 494 217 560T158 748Z" />
<glyph unicode="&#x2039;" horiz-adv-x="635" d="M82 553L426 965L555 891L268 541L555 190L426 115L82 526V553Z" />
<glyph unicode="&#x203a;" horiz-adv-x="635" d="M553 526L207 115L80 190L367 541L80 891L207 965L553 553V526Z" />
</font>
</defs>
</svg>
