<?xml version="1.0" standalone="no"?>
<!DOCTYPE svg PUBLIC "-//W3C//DTD SVG 1.1//EN" "http://www.w3.org/Graphics/SVG/1.1/DTD/svg11.dtd">
<svg xmlns="http://www.w3.org/2000/svg">
<defs >
<font id="ArchivoBlack" horiz-adv-x="652" ><font-face
    font-family="Archivo Black"
    units-per-em="1000"
    panose-1="2 11 10 3 2 2 2 2 11 4"
    ascent="878"
    descent="-210"
    alphabetic="0" />
<glyph unicode=" " glyph-name="space" horiz-adv-x="333" />
<glyph unicode="!" glyph-name="exclam" horiz-adv-x="333" d="M102 246L47 688H286L229 246H102ZM67 0V185H265V0H67Z" />
<glyph unicode="&quot;" glyph-name="quotedbl" horiz-adv-x="500" d="M175 398H106L59 541V688H222V541L175 398ZM393 398H325L278 541V688H441V541L393 398Z" />
<glyph unicode="#" glyph-name="numbersign" horiz-adv-x="660" d="M639 502V391H526L500 268H606V159H472L435 -11H318L355 159H240L204 -11H84L120 159H20V268H146L174 391H66V502H196L240 700H362L317 502H428L472 700H592L546 502H639ZM265 267H379L408 390H292L265
267Z" />
<glyph unicode="$" glyph-name="dollar" horiz-adv-x="667" d="M481 612T541 571T601 451H416Q415 479 394 490T345 502Q273 502 273 468Q273 449 298 441T380 424Q450 414 497 401T579 353T614 256Q614 165 553 121T389 70L397 -67H284L291 71Q195 81 132 126T69
253H254V249Q255 215 282 202T341 188Q424 188 424 227Q424 247 398 256T313 275Q242 287 197 301T117 348T83 442Q83 526 139 568T291 618L284 756H397L389 619Q481 612 541 571Z" />
<glyph unicode="%" glyph-name="percent" horiz-adv-x="1000" d="M324 700T368 653T413 520Q413 437 369 390T230 342Q136 342 91 389T46 520Q46 605 91 652T230 700Q324 700 368 653ZM231 0L650 687H759L342 0H231ZM199 624T185 601T170 537V505Q170 465 184
442T230 418Q289 418 289 505V537Q289 624 230 624Q199 624 185 601ZM856 346T900 299T945 166Q945 83 901 36T762 -12Q668 -12 623 35T578 166Q578 251 623 298T762 346Q856 346 900 299ZM731 270T717 247T702 183V151Q702 111 716 88T762 64Q821 64 821 151V183Q821
270 762 270Q731 270 717 247Z" />
<glyph unicode="&amp;" glyph-name="ampersand" horiz-adv-x="889" d="M519 700T594 675T709 607T749 512V487H572Q572 518 536 538T430 559Q366 559 333 535T299 475Q299 444 319 428T370 412H474V289H348Q317 289 298 271T278 217Q278 176 312 153T422 129Q572
129 572 218V412H888V289H751V222Q751 110 672 49T423 -12Q249 -12 162 44T75 192Q75 252 106 295T195 357V361Q152 377 124 416T95 503Q95 557 131 602T241 673T417 700Q519 700 594 675Z" />
<glyph unicode="&apos;" glyph-name="quotesingle" horiz-adv-x="278" d="M172 398H104L57 541V688H220V541L172 398Z" />
<glyph unicode="(" glyph-name="parenleft" horiz-adv-x="389" d="M296 645T259 520T222 288Q222 181 259 57T355 -160H235Q149 -68 102 49T55 288Q55 411 102 528T235 737H355Q296 645 259 520Z" />
<glyph unicode=")" glyph-name="parenright" horiz-adv-x="389" d="M240 645T287 528T334 288Q334 166 287 49T154 -160H34Q93 -68 130 56T167 288Q167 394 130 519T34 737H154Q240 645 287 528Z" />
<glyph unicode="*" glyph-name="asterisk" horiz-adv-x="556" d="M413 637L460 557L348 505L460 454L413 373L312 444L324 322H231L243 444L142 373L95 454L207 505L95 557L142 637L243 566L231 688H324L312 567L413 637Z" />
<glyph unicode="+" glyph-name="plus" horiz-adv-x="660" d="M594 330V198H396V0H264V198H66V330H264V528H396V330H594Z" />
<glyph unicode="," glyph-name="comma" horiz-adv-x="333" d="M168 -183H60L142 0H61V199H273V11L168 -183Z" />
<glyph unicode="-" glyph-name="hyphen" horiz-adv-x="333" d="M39 196V354H294V196H39Z" />
<glyph unicode="." glyph-name="period" horiz-adv-x="333" d="M61 0V199H273V0H61Z" />
<glyph unicode="/" glyph-name="slash" horiz-adv-x="278" d="M-2 -48L158 736H279L120 -48H-2Z" />
<glyph unicode="0" glyph-name="zero" horiz-adv-x="667" d="M495 700T560 609T626 344Q626 171 561 80T334 -12Q172 -12 107 79T41 344Q41 517 106 608T334 700Q495 700 560 609ZM282 565T260 525T238 394V295Q238 203 260 163T334 123Q386 123 407 163T428 295V394Q428
486 407 525T334 565Q282 565 260 525Z" />
<glyph unicode="1" glyph-name="one" horiz-adv-x="667" d="M624 154V0H105V154H268V465H105V581Q172 585 255 616T400 689H467V154H624Z" />
<glyph unicode="2" glyph-name="two" horiz-adv-x="667" d="M427 700T486 675T578 602T611 493Q611 435 582 388T509 305T388 217Q345 189 318 169H619V0H49V48Q49 101 73 142T145 226Q193 268 283 340Q355 397 384 427T413 486Q413 517 392 538T327 559Q282 559
256 533T230 465V445H52Q51 453 51 467Q51 575 126 637T346 700Q427 700 486 675Z" />
<glyph unicode="3" glyph-name="three" horiz-adv-x="667" d="M421 700T481 675T573 608T605 513Q605 461 577 420T505 361V357Q562 339 593 295T625 187Q621 99 549 44T335 -12Q238 -12 172 14T74 85T42 186V207H218Q218 125 322 125Q426 125 426 217Q426 252
407 270T356 289H283V412H340Q371 412 390 430T410 484Q410 517 387 540T322 563Q279 563 255 541T231 487H64V512Q64 564 96 607T191 675T339 700Q421 700 481 675Z" />
<glyph unicode="4" glyph-name="four" horiz-adv-x="667" d="M404 648T363 571T266 416T160 288H358V431Q389 475 421 535T463 634H548V288H644V141H548V0H358V141H23V290Q77 368 130 479T215 700H411Q404 648 363 571Z" />
<glyph unicode="5" glyph-name="five" horiz-adv-x="667" d="M247 518L239 414Q239 416 259 427T312 449T386 459Q496 459 560 397T625 225Q625 159 590 105T491 20T343 -12Q196 -12 118 51T39 222H215Q215 181 243 154T322 126Q373 126 400 154T428 228Q428 274
401 302T323 331Q285 331 266 319T238 295T227 281L69 303L98 688H574V518H247Z" />
<glyph unicode="6" glyph-name="six" horiz-adv-x="667" d="M464 700T539 640T614 468H436V475Q436 514 412 539T342 565Q295 565 269 533T242 445V387Q271 413 311 426T387 439Q456 439 511 415T599 343T631 228Q631 114 553 51T339 -12Q188 -12 115 70T41 327Q41
524 113 612T339 700Q464 700 539 640ZM293 319T268 294T242 221Q242 174 267 149T339 123Q387 123 412 147T438 219Q438 266 413 292T340 319Q293 319 268 294Z" />
<glyph unicode="7" glyph-name="seven" horiz-adv-x="667" d="M511 456T446 327T380 59V0H158Q158 136 216 267T375 516H45V688H625V597Q511 456 446 327Z" />
<glyph unicode="8" glyph-name="eight" horiz-adv-x="667" d="M407 700T468 676T564 607T600 497Q600 444 579 413T516 352V348Q571 317 598 282T626 189Q626 92 547 40T332 -12Q196 -12 119 40T41 189Q41 246 68 281T150 348V352Q108 382 87 413T66 497Q66 561
101 606T196 676T332 700Q407 700 468 676ZM289 565T265 547T240 489Q240 451 265 433T332 414Q373 414 400 432T427 489Q427 528 401 546T332 565Q289 565 265 547ZM293 287T267 266T240 205Q240 166 265 145T332 123Q374 123 400 144T427 205Q427 244 400 265T332
287Q293 287 267 266Z" />
<glyph unicode="9" glyph-name="nine" horiz-adv-x="667" d="M479 700T552 618T626 361Q626 164 554 76T328 -12Q203 -12 128 48T53 220H231V213Q231 174 255 149T325 123Q372 123 398 155T425 243V301Q396 275 356 262T280 249Q211 249 156 273T68 345T36 460Q36
574 114 637T328 700Q479 700 552 618ZM280 565T255 540T229 467Q229 420 254 395T326 369Q374 369 399 393T425 465Q425 512 400 538T327 565Q280 565 255 540Z" />
<glyph unicode=":" glyph-name="colon" horiz-adv-x="333" d="M61 328V528H273V328H61ZM61 0V199H273V0H61Z" />
<glyph unicode=";" glyph-name="semicolon" horiz-adv-x="333" d="M61 328V528H273V328H61ZM168 -183H60L142 0H61V199H273V11L168 -183Z" />
<glyph unicode="&lt;" glyph-name="less" horiz-adv-x="660" d="M233 260L592 129V-13L67 189V332L592 535V392L233 260Z" />
<glyph unicode="=" glyph-name="equal" horiz-adv-x="660" d="M66 311V443H594V311H66ZM66 85V217H594V85H66Z" />
<glyph unicode="&gt;" glyph-name="greater" horiz-adv-x="660" d="M593 189L68 -13V129L427 260L68 392V535L593 332V189Z" />
<glyph unicode="?" glyph-name="question" horiz-adv-x="611" d="M386 700T444 675T534 604T566 496Q566 457 549 427T509 375T451 329Q422 307 409 294T395 267V246H224V296Q224 320 239 339T286 389Q319 418 336 441T354 492Q354 521 336 541T288 562Q223 562
223 478Q223 460 224 451H40Q39 458 38 467T37 489Q37 553 72 600T169 674T310 700Q386 700 444 675ZM212 0V185H410V0H212Z" />
<glyph unicode="@" glyph-name="at" horiz-adv-x="740" d="M536 700T628 608T720 323Q720 225 695 164T630 77T546 51Q469 51 437 104Q411 80 379 66T303 51Q161 51 161 165Q161 224 190 255T274 297T420 309V329Q420 352 407 365T372 378Q351 378 337 369T322
339H173Q172 343 172 349Q172 406 224 440T374 474Q462 474 517 443T573 343V184Q573 154 602 154Q619 154 635 189T652 324Q652 485 579 562T380 639Q236 639 162 546T88 265Q88 88 152 0T350 -88Q382 -88 427 -79T495 -56V-122Q469 -133 425 -141T350 -149Q192
-149 106 -47T20 266Q20 491 118 595T381 700Q536 700 628 608ZM365 236T339 222T312 184Q312 145 354 145Q381 145 400 161T420 202V236Q365 236 339 222Z" />
<glyph unicode="A" glyph-name="A" horiz-adv-x="778" d="M535 0L506 97H265L236 0H10L261 688H518L769 0H535ZM311 251H460L388 496H384L311 251Z" />
<glyph unicode="B" glyph-name="B" horiz-adv-x="778" d="M584 688T627 667T696 606T722 519Q722 392 607 359V355Q738 325 738 183Q738 129 712 88T639 23T538 0H74V688H532Q584 688 627 667ZM295 420H447Q469 420 483 435T498 474V484Q498 506 483 521T447 537H295V420ZM295
160H463Q485 160 499 175T514 214V224Q514 247 500 262T463 278H295V160Z" />
<glyph unicode="C" glyph-name="C" horiz-adv-x="778" d="M555 700T644 624T733 405H522Q522 465 491 500T401 535Q334 535 303 493T271 376V312Q271 238 302 196T399 153Q463 153 496 186T529 279H733Q733 138 647 63T402 -12Q226 -12 136 78T45 344Q45 520 135
610T402 700Q555 700 644 624Z" />
<glyph unicode="D" glyph-name="D" horiz-adv-x="778" d="M733 688T733 344Q733 0 372 0H74V688H372Q733 688 733 344ZM295 165H368Q507 165 507 314V374Q507 523 368 523H295V165Z" />
<glyph unicode="E" glyph-name="E" horiz-adv-x="722" d="M74 688H669V523H295V428H615V270H295V165H676V0H74V688Z" />
<glyph unicode="F" glyph-name="F" horiz-adv-x="667" d="M74 688H630V523H295V405H583V247H295V0H74V688Z" />
<glyph unicode="G" glyph-name="G" horiz-adv-x="833" d="M519 700T598 670T723 582T770 439H559Q559 482 521 508T429 535Q351 535 311 494T271 376V312Q271 236 311 195T429 153Q483 153 521 178T559 244H403V384H770V0H656L634 68Q540 -12 388 -12Q217 -12
131 77T45 344Q45 519 142 609T420 700Q519 700 598 670Z" />
<glyph unicode="H" glyph-name="H" horiz-adv-x="833" d="M538 0V261H295V0H74V688H295V437H538V688H759V0H538Z" />
<glyph unicode="I" glyph-name="I" horiz-adv-x="389" d="M84 0V688H305V0H84Z" />
<glyph unicode="J" glyph-name="J" horiz-adv-x="667" d="M593 110T520 49T308 -12Q170 -12 97 49T23 239V248H230V240Q230 193 247 173T301 153Q337 153 354 173T372 240V688H593V239Q593 110 520 49Z" />
<glyph unicode="K" glyph-name="K" horiz-adv-x="833" d="M540 688H814L567 405L819 0H558L415 252L295 154V0H74V688H295V394L540 688Z" />
<glyph unicode="L" glyph-name="L" horiz-adv-x="667" d="M74 688H295V176H648V0H74V688Z" />
<glyph unicode="M" glyph-name="M" horiz-adv-x="944" d="M665 0V248Q665 294 668 342T676 424T681 466H677L550 0H377L249 465H245Q246 456 250 424T259 343T263 248V0H60V688H372L476 291H480L583 688H884V0H665Z" />
<glyph unicode="N" glyph-name="N" horiz-adv-x="833" d="M566 0L277 334V0H74V688H267L556 349V688H759V0H566Z" />
<glyph unicode="O" glyph-name="O" horiz-adv-x="833" d="M594 700T691 609T788 344Q788 170 691 79T416 -12Q238 -12 142 78T45 344Q45 519 141 609T416 700Q594 700 691 609ZM345 535T308 492T271 376V312Q271 239 308 196T416 153Q487 153 524 196T562 312V376Q562
449 525 492T416 535Q345 535 308 492Z" />
<glyph unicode="P" glyph-name="P" horiz-adv-x="722" d="M524 688T574 659T652 578T680 462V449Q680 385 652 333T574 252T460 222H295V0H74V688H460Q524 688 574 659ZM295 383H386Q421 383 438 401T456 450V458Q456 490 439 507T386 525H295V383Z" />
<glyph unicode="Q" glyph-name="Q" horiz-adv-x="833" d="M45 519T141 609T416 700Q594 700 691 609T788 344Q788 228 745 149T618 28L775 -131H512L406 -12Q232 -9 139 81T45 344Q45 519 141 609ZM562 449T525 492T416 535Q345 535 308 492T271 376V312Q271 239
308 196T416 153Q487 153 524 196T562 312V376Q562 449 525 492Z" />
<glyph unicode="R" glyph-name="R" horiz-adv-x="778" d="M727 414T693 363T594 288L747 0H499L377 251H295V0H74V688H495Q569 688 621 660T700 583T727 477Q727 414 693 363ZM502 495T484 513T440 531H295V404H440Q466 404 484 422T502 468Q502 495 484 513Z" />
<glyph unicode="S" glyph-name="S" horiz-adv-x="722" d="M495 700T580 647T667 488V476H460V480Q460 510 438 530T371 550Q327 550 304 537T280 505Q280 478 312 465T415 438Q498 421 551 403T645 342T686 228Q686 106 604 47T383 -12Q222 -12 133 42T43 233H252Q252
181 279 164T363 146Q405 146 432 155T460 192Q460 217 430 229T330 256Q246 274 191 293T95 358T54 480Q54 593 141 646T363 700Q495 700 580 647Z" />
<glyph unicode="T" glyph-name="T" horiz-adv-x="722" d="M470 512V0H249V512H23V688H695V512H470Z" />
<glyph unicode="U" glyph-name="U" horiz-adv-x="833" d="M759 136T670 62T417 -12Q253 -12 164 62T74 277V688H295V280Q295 222 326 188T416 153Q475 153 506 188T538 280V688H759V277Q759 136 670 62Z" />
<glyph unicode="V" glyph-name="V" horiz-adv-x="778" d="M261 0L17 688H253L391 228H395L534 688H760L517 0H261Z" />
<glyph unicode="W" glyph-name="W" horiz-adv-x="1000" d="M591 0L502 419H498L409 0H166L5 688H235L314 298H318L396 688H614L697 298H701L775 688H995L834 0H591Z" />
<glyph unicode="X" glyph-name="X" horiz-adv-x="778" d="M778 0H510L383 214H379L252 0H4L250 364L28 688H295L399 512H403L508 688H755L532 363L778 0Z" />
<glyph unicode="Y" glyph-name="Y" horiz-adv-x="778" d="M501 0H280V267L7 688H261L393 459H397L529 688H770L501 267V0Z" />
<glyph unicode="Z" glyph-name="Z" horiz-adv-x="722" d="M364 165H691V0H24V71L343 523H48V688H683V617L364 165Z" />
<glyph unicode="[" glyph-name="bracketleft" horiz-adv-x="389" d="M225 634V-57H339V-160H66V737H339V634H225Z" />
<glyph unicode="\" glyph-name="backslash" horiz-adv-x="278" d="M157 -48L-2 736H119L279 -48H157Z" />
<glyph unicode="]" glyph-name="bracketright" horiz-adv-x="389" d="M66 -160V-57H180V634H66V737H339V-160H66Z" />
<glyph unicode="^" glyph-name="asciicircum" horiz-adv-x="660" d="M462 337L331 549L199 337H55L258 688H401L604 337H462Z" />
<glyph unicode="_" glyph-name="underscore" horiz-adv-x="500" d="M0 -126V-64H500V-126H0Z" />
<glyph unicode="`" glyph-name="grave" horiz-adv-x="333" d="M183 592L23 721L25 725H218L310 592H183Z" />
<glyph unicode="a" glyph-name="a" horiz-adv-x="667" d="M442 540T518 500T594 368V162Q594 145 602 134T626 123H662V8Q659 6 647 2T611 -7T558 -12Q500 -12 463 5T411 54Q373 24 326 6T216 -12Q30 -12 30 136Q30 213 71 253T191 309T395 324V350Q395 381 374
397T318 413Q287 413 265 402T242 367V363H46Q45 368 45 377Q45 452 116 496T321 540Q442 540 518 500ZM310 230T270 212T229 162Q229 112 297 112Q336 112 365 133T395 185V230Q310 230 270 212Z" />
<glyph unicode="b" glyph-name="b" horiz-adv-x="667" d="M317 540T408 540Q515 540 573 471T631 265Q631 128 573 58T408 -12Q298 -12 240 75L223 0H61V725H260V479Q317 540 408 540ZM302 393T280 362T258 280V247Q258 197 280 166T346 135Q432 135 432 237V290Q432
393 346 393Q302 393 280 362Z" />
<glyph unicode="c" glyph-name="c" horiz-adv-x="667" d="M463 540T543 485T624 315H431Q431 405 333 405Q235 405 235 292V235Q235 123 337 123Q439 123 439 215H624Q624 100 544 44T333 -12Q194 -12 115 58T36 264Q36 400 115 470T333 540Q463 540 543 485Z" />
<glyph unicode="d" glyph-name="d" horiz-adv-x="667" d="M444 0L427 75Q369 -12 259 -12Q152 -12 94 58T36 265Q36 401 94 470T259 540Q350 540 407 479V725H606V0H444ZM235 393T235 290V237Q235 135 321 135Q365 135 387 166T409 247V280Q409 330 387 361T321
393Q235 393 235 290Z" />
<glyph unicode="e" glyph-name="e" horiz-adv-x="667" d="M478 540T554 472T631 264V230H235Q235 173 260 144T341 115Q391 115 414 136T438 192H631Q631 96 558 42T345 -12Q198 -12 117 56T36 264Q36 400 115 470T333 540Q478 540 554 472ZM247 413T236 324H430Q430
365 407 389T341 413Q247 413 236 324Z" />
<glyph unicode="f" glyph-name="f" horiz-adv-x="389" d="M297 737T330 732T383 719V602H337Q305 602 293 590T281 549V528H383V393H281V0H82V393H8V528H82V550Q82 652 132 694T275 737Q297 737 330 732Z" />
<glyph unicode="g" glyph-name="g" horiz-adv-x="667" d="M654 566T624 533T532 484Q561 462 577 433T594 370Q594 286 531 243T372 200H296Q233 200 233 171Q233 157 247 149T296 140H476Q564 140 609 94T654 -29Q654 -86 624 -127T543 -189T432 -210H138Q102
-210 72 -193T23 -147T5 -81Q5 -42 29 -11T89 37Q65 54 51 78T37 130Q37 169 66 200T138 243Q99 268 76 300T53 369Q53 461 127 500T325 540Q379 540 412 534Q461 565 475 590T490 627H654Q654 566 624 533ZM290 436T269 419T248 370Q248 337 267 321T323 304Q359
304 379 320T400 370Q400 403 380 419T323 436Q290 436 269 419ZM223 0T209 -12T194 -48Q194 -71 209 -85T246 -99H402Q424 -99 439 -86T455 -49Q455 -26 440 -13T402 0H246Q223 0 209 -12Z" />
<glyph unicode="h" glyph-name="h" horiz-adv-x="667" d="M291 505T334 522T424 540Q516 540 562 489T608 342V0H409V318Q409 352 392 372T342 393Q305 393 282 369T259 310V0H60V725H259V473Q291 505 334 522Z" />
<glyph unicode="i" glyph-name="i" horiz-adv-x="333" d="M67 590V725H266V590H67ZM67 0V528H266V0H67Z" />
<glyph unicode="j" glyph-name="j" horiz-adv-x="333" d="M67 590V725H266V590H67ZM266 -125T223 -167T83 -210Q57 -210 19 -205T-41 -192V-73H11Q67 -73 67 -9V528H266V-29Q266 -125 223 -167Z" />
<glyph unicode="k" glyph-name="k" horiz-adv-x="667" d="M428 528H660L465 315L665 0H439L328 181L259 114V0H60V726H259V326L428 528Z" />
<glyph unicode="l" glyph-name="l" horiz-adv-x="333" d="M67 0V725H266V0H67Z" />
<glyph unicode="m" glyph-name="m" horiz-adv-x="1000" d="M851 540T896 489T941 342V0H742V318Q742 352 726 372T679 393Q644 393 622 369T600 310V0H401V318Q401 352 385 372T338 393Q303 393 281 369T259 310V0H60V528H223L236 449Q266 491 315 515T420 540Q539
540 580 449Q611 491 659 515T761 540Q851 540 896 489Z" />
<glyph unicode="n" glyph-name="n" horiz-adv-x="667" d="M516 540T562 489T608 342V0H409V318Q409 352 392 372T342 393Q305 393 282 369T259 310V0H60V528H223L236 448Q267 490 317 515T424 540Q516 540 562 489Z" />
<glyph unicode="o" glyph-name="o" horiz-adv-x="667" d="M472 540T551 470T631 264Q631 129 552 59T333 -12Q194 -12 115 58T36 264Q36 400 115 470T333 540Q472 540 551 470ZM235 405T235 292V235Q235 123 333 123Q432 123 432 235V292Q432 405 333 405Q235
405 235 292Z" />
<glyph unicode="p" glyph-name="p" horiz-adv-x="667" d="M515 540T573 470T631 263Q631 127 573 58T408 -12Q316 -12 260 48V-197H61V528H223L240 453Q298 540 408 540Q515 540 573 470ZM302 393T280 362T258 281V248Q258 198 280 167T346 135Q432 135 432 238V291Q432
393 346 393Q302 393 280 362Z" />
<glyph unicode="q" glyph-name="q" horiz-adv-x="667" d="M369 540T427 453L444 528H606V-197H407V48Q351 -12 259 -12Q152 -12 94 57T36 263Q36 400 94 470T259 540Q369 540 427 453ZM235 393T235 291V238Q235 135 321 135Q365 135 387 166T409 248V281Q409 331
387 362T321 393Q235 393 235 291Z" />
<glyph unicode="r" glyph-name="r" horiz-adv-x="444" d="M404 541T422 536T440 529V362H376Q314 362 287 330T259 235V0H60V528H223L236 448Q254 494 293 517T381 541Q404 541 422 536Z" />
<glyph unicode="s" glyph-name="s" horiz-adv-x="611" d="M417 540T490 499T564 370H379Q379 399 353 411Q335 421 308 421Q236 421 236 387Q236 368 261 360T343 343Q413 333 460 320T542 272T577 175Q577 74 502 31T304 -12Q234 -12 172 7T71 68T32 172H217V168Q218
134 245 121T304 107Q387 107 387 146Q387 166 361 175T276 194Q205 206 160 220T80 267T46 361Q46 458 119 499T311 540Q417 540 490 499Z" />
<glyph unicode="t" glyph-name="t" horiz-adv-x="444" d="M412 528V393H300V192Q300 156 312 140T356 123H412V6Q388 -2 350 -7T284 -12Q196 -12 149 20T101 129V393H27V528H109L152 688H300V528H412Z" />
<glyph unicode="u" glyph-name="u" horiz-adv-x="667" d="M443 0L430 80Q399 37 349 13T242 -12Q150 -12 104 39T58 186V528H257V210Q257 176 274 156T324 135Q361 135 384 159T407 218V528H606V0H443Z" />
<glyph unicode="v" glyph-name="v" horiz-adv-x="611" d="M200 0L0 528H214L311 199H318L415 528H611L409 0H200Z" />
<glyph unicode="w" glyph-name="w" horiz-adv-x="944" d="M556 0L474 294H470L387 0H193L0 528H214L294 216H301L384 528H582L662 216H669L750 528H944L750 0H556Z" />
<glyph unicode="x" glyph-name="x" horiz-adv-x="667" d="M662 0H430L330 166H326L225 0H4L207 280L24 528H258L342 388H346L430 528H650L464 275L662 0Z" />
<glyph unicode="y" glyph-name="y" horiz-adv-x="611" d="M382 -95T323 -152T156 -210Q91 -210 41 -192V-73H121Q196 -73 210 0L0 528H214L315 177H322L415 528H611L423 16Q382 -95 323 -152Z" />
<glyph unicode="z" glyph-name="z" horiz-adv-x="556" d="M302 135H535V0H20V65L242 393H32V528H526V466L302 135Z" />
<glyph unicode="{" glyph-name="braceleft" horiz-adv-x="389" d="M275 639T273 598L263 397Q258 294 162 294V285Q258 285 263 182L273 -20Q275 -62 349 -62V-160H258Q201 -160 159 -131T117 -48V195Q117 223 92 236T30 250V329Q64 329 90 343T117 386V625Q117
679 159 708T258 737H349V639Q275 639 273 598Z" />
<glyph unicode="|" glyph-name="bar" horiz-adv-x="278" d="M77 -211V726H201V-211H77Z" />
<glyph unicode="}" glyph-name="braceright" horiz-adv-x="389" d="M188 737T230 708T272 625V386Q272 358 298 344T359 329V250Q322 250 297 237T272 195V-48Q272 -102 230 -131T131 -160H40V-62Q114 -62 116 -20L126 182Q131 285 227 285V294Q131 294 126 397L116
598Q114 639 40 639V737H131Q188 737 230 708Z" />
<glyph unicode="~" glyph-name="asciitilde" horiz-adv-x="660" d="M621 277T596 256T534 217T453 199Q424 199 397 207T331 233Q292 250 265 258T207 267Q163 267 126 249T64 210T39 187V317Q39 319 64 340T126 379T207 397Q236 397 263 389T329 363Q367 346
395 338T453 329Q497 329 534 347T596 386T621 409V279Q621 277 596 256Z" />
<glyph unicode="&#xa0;" glyph-name="uni00A0" horiz-adv-x="333" />
<glyph unicode="&#xa1;" glyph-name="exclamdown" horiz-adv-x="333" d="M67 343V528H265V343H67ZM47 -160L102 282H229L286 -160H47Z" />
<glyph unicode="&#xa2;" glyph-name="cent" horiz-adv-x="667" d="M494 608T559 553T624 396H431Q431 486 333 486Q235 486 235 373V316Q235 204 337 204Q439 204 439 296H624Q624 193 559 137T384 71L392 -67H279L286 71Q168 83 102 152T36 345Q36 468 102 537T286
619L279 756H392L384 618Q494 608 559 553Z" />
<glyph unicode="&#xa3;" glyph-name="sterling" horiz-adv-x="667" d="M463 700T521 673T608 599T638 494V466H439V494Q439 518 422 535T381 552Q357 552 340 535T323 494V403H419V276H322L302 147H584V0H61V147H125V276H31V403H125V493Q125 585 189 642T381 700Q463
700 521 673Z" />
<glyph unicode="&#xa4;" glyph-name="currency" horiz-adv-x="660" d="M535 479Q554 458 565 420T577 339Q577 298 566 260T533 197L589 141L529 81L471 139Q449 117 411 104T329 91Q287 91 249 103T187 137L130 80L69 141L127 199Q105 224 93 260T81 339Q81 381
93 419T127 479L69 537L132 600L189 543Q212 563 250 575T329 587Q370 587 407 575T465 545L523 603L591 535L535 479ZM274 477T238 437T201 339Q201 281 238 241T329 201Q385 201 421 241T457 339Q457 396 421 436T329 477Q274 477 238 437Z" />
<glyph unicode="&#xa5;" glyph-name="yen" horiz-adv-x="667" d="M638 459V366H489L463 318H638V225H436V0H235V225H32V318H207L180 366H32V459H129L2 688H232L338 459H342L448 688H665L540 459H638Z" />
<glyph unicode="&#xa6;" glyph-name="brokenbar" horiz-adv-x="278" d="M78 336V726H202V336H78ZM78 -210V180H202V-210H78Z" />
<glyph unicode="&#xa7;" glyph-name="section" horiz-adv-x="667" d="M392 700T451 686T550 637T590 547V537H409Q409 560 388 571T339 582Q309 582 286 573T263 546Q263 521 293 504T390 461Q458 436 503 413T580 353T613 261Q613 208 585 171T522 109Q598 57
598 -13Q598 -74 558 -112T459 -167T337 -184Q275 -184 216 -170T117 -121T77 -31V-21H258Q258 -44 279 -55T328 -66Q358 -66 381 -57T404 -30Q404 -5 374 12T277 55Q209 80 164 103T87 163T54 255Q54 308 82 346T144 407Q69 458 69 529Q69 590 109 628T208 683T330
700Q392 700 451 686ZM221 326T221 301Q221 264 260 239T383 179Q392 175 400 172T415 165Q446 190 446 215Q446 252 407 277T284 337Q275 341 267 344T252 351Q221 326 221 301Z" />
<glyph unicode="&#xa8;" glyph-name="dieresis" horiz-adv-x="333" d="M-20 586V725H132V586H-20ZM200 586V725H352V586H200Z" />
<glyph unicode="&#xa9;" glyph-name="copyright" horiz-adv-x="800" d="M503 700T584 653T712 525T758 345Q758 246 712 165T585 36T400 -12Q297 -12 216 35T90 164T44 345Q44 444 89 525T216 653T400 700Q503 700 584 653ZM315 636T252 600T155 498T121 345Q121
258 155 192T252 89T400 53Q485 53 548 89T646 191T681 345Q681 432 647 498T549 600T400 636Q315 636 252 600ZM497 558T550 512T604 381H477Q477 417 458 438T404 459Q326 459 326 363V325Q326 280 345 255T403 229Q442 229 461 249T481 305H604Q604 220 552
175T405 130Q299 130 245 184T190 344Q190 450 244 504T405 558Q497 558 550 512Z" />
<glyph unicode="&#xaa;" glyph-name="ordfeminine" horiz-adv-x="400" d="M281 737T331 713T381 633V510Q381 500 386 493T402 486Q410 486 417 487T426 489V420Q424 419 416 416T392 409T358 405Q320 405 296 415T262 445Q207 405 134 405Q12 405 12 494Q12 540
39 564T118 598T251 607V623Q251 641 237 650T201 660Q180 660 166 653T151 630H23Q22 633 22 639Q22 684 69 710T203 737Q281 737 331 713ZM196 551T170 540T143 510Q143 480 187 480Q213 480 232 492T251 524V551Q196 551 170 540Z" />
<glyph unicode="&#xab;" glyph-name="guillemotleft" horiz-adv-x="667" d="M370 119H227L60 324L227 528H370L232 324L370 119ZM606 119H463L296 324L463 528H606L468 324L606 119Z" />
<glyph unicode="&#xac;" glyph-name="logicalnot" horiz-adv-x="660" d="M450 154V335H50V490H604V154H450Z" />
<glyph unicode="&#xad;" glyph-name="uni00AD" horiz-adv-x="333" d="M39 196V354H294V196H39Z" />
<glyph unicode="&#xae;" glyph-name="registered" horiz-adv-x="800" d="M503 700T584 653T712 525T758 345Q758 246 712 165T585 36T400 -12Q297 -12 216 35T90 164T44 345Q44 444 89 525T216 653T400 700Q503 700 584 653ZM315 636T252 600T155 498T121 345Q121
258 155 192T252 89T400 53Q485 53 548 89T646 191T681 345Q681 432 647 498T549 600T400 636Q315 636 252 600ZM506 551T539 522T573 447Q573 405 553 380T506 344V339Q540 330 556 304T573 242Q573 214 578 194T604 168V143Q575 131 531 131Q484 131 461 148T438
205Q438 241 428 262T384 284H365V138H232V551H458Q506 551 539 522ZM365 376H400Q416 376 427 387T438 417Q438 434 427 445T400 457H365V376Z" />
<glyph unicode="&#xaf;" glyph-name="overscore" horiz-adv-x="333" d="M9 605V705H325V605H9Z" />
<glyph unicode="&#xb0;" glyph-name="degree" horiz-adv-x="400" d="M240 700T274 680T329 625T350 550Q350 509 330 475T275 420T200 400Q159 400 125 420T71 474T50 550Q50 590 70 624T124 679T200 700Q240 700 274 680ZM174 611T156 593T137 549Q137 524 155
506T199 487Q225 487 243 505T261 549Q261 575 243 593T198 611Q174 611 156 593Z" />
<glyph unicode="&#xb1;" glyph-name="plusminus" horiz-adv-x="660" d="M594 490V358H396V176H264V358H66V490H264V672H396V490H594ZM66 0V132H594V0H66Z" />
<glyph unicode="&#xb2;" glyph-name="uni00B2" horiz-adv-x="400" d="M291 737T338 703T385 613Q385 578 366 550T319 501T240 448Q234 445 193 419H390V317H16V346Q16 378 32 403T79 453Q106 475 170 522Q217 555 236 573T255 608Q255 627 241 639T198 652Q169
652 152 637T135 596V584H18Q17 589 17 597Q17 662 67 699T211 737Q291 737 338 703Z" />
<glyph unicode="&#xb3;" glyph-name="uni00B3" horiz-adv-x="400" d="M291 737T338 705T385 625Q385 594 367 570T319 535V531Q357 520 377 494T398 430Q395 377 348 344T207 311Q113 311 64 344T15 429V442H131Q131 393 199 393Q267 393 267 448Q267 469 254
480T221 491H173V565H211Q231 565 244 576T257 608Q257 627 242 641T199 655Q171 655 155 642T139 610H30V625Q30 656 51 681T113 722T210 737Q291 737 338 705Z" />
<glyph unicode="&#xb4;" glyph-name="acute" horiz-adv-x="333" d="M157 592H30L122 725H315L317 721L157 592Z" />
<glyph unicode="&#xb5;" glyph-name="uni00B5" horiz-adv-x="667" d="M443 0L430 80Q401 40 355 16T257 -11V-196H58V528H257V210Q257 176 274 156T324 135Q361 135 384 159T407 218V528H606V0H443Z" />
<glyph unicode="&#xb6;" glyph-name="paragraph" horiz-adv-x="850" d="M678 567V-161H550V567H444V-161H316V255Q259 257 212 286T137 364T109 471Q109 530 138 580T216 659T325 688H744V567H678Z" />
<glyph unicode="&#xb7;" glyph-name="middot" horiz-adv-x="333" d="M71 235V418H262V235H71Z" />
<glyph unicode="&#xb8;" glyph-name="cedilla" horiz-adv-x="333" d="M291 -38T291 -118Q291 -169 255 -190T173 -211Q138 -211 103 -207T47 -195V-141Q58 -142 95 -145T164 -149Q204 -149 204 -118Q204 -102 196 -94T166 -86H128L147 39H209L198 -29Q291 -38 291 -118Z" />
<glyph unicode="&#xb9;" glyph-name="uni00B9" horiz-adv-x="400" d="M371 408V316H30V408H137V595H30V664Q74 667 129 686T224 729H268V408H371Z" />
<glyph unicode="&#xba;" glyph-name="ordmasculine" horiz-adv-x="400" d="M297 737T349 695T401 571Q401 490 349 448T206 405Q116 405 64 447T12 571Q12 652 64 694T206 737Q297 737 349 695ZM142 656T142 588V554Q142 486 206 486Q271 486 271 554V588Q271
656 206 656Q142 656 142 588Z" />
<glyph unicode="&#xbb;" glyph-name="guillemotright" horiz-adv-x="667" d="M204 528L371 324L204 119H61L199 324L61 528H204ZM440 528L607 324L440 119H297L435 324L297 528H440Z" />
<glyph unicode="&#xbc;" glyph-name="onequarter" horiz-adv-x="1000" d="M260 -12L670 700H766L355 -12H260ZM379 372V280H38V372H145V559H38V628Q82 631 137 650T232 693H276V372H379ZM819 374T766 298T661 173H791V258Q811 286 832 321T859 380H915V173H978V85H915V0H791V85H571V174Q606
221 641 287T697 420H825Q819 374 766 298Z" />
<glyph unicode="&#xbd;" glyph-name="onehalf" horiz-adv-x="1000" d="M260 -12L670 700H766L355 -12H260ZM379 373V281H38V373H145V560H38V629Q82 632 137 651T232 694H276V373H379ZM876 420T923 386T970 296Q970 261 951 233T904 184T825 131Q819 128 778 102H975V0H601V29Q601
61 617 86T664 136Q691 158 755 205Q802 238 821 256T840 291Q840 310 826 322T783 335Q754 335 737 320T720 279V267H603Q602 272 602 280Q602 345 652 382T796 420Q876 420 923 386Z" />
<glyph unicode="&#xbe;" glyph-name="threequarters" horiz-adv-x="1000" d="M304 701T351 669T398 589Q398 558 380 534T332 499V495Q370 484 390 458T411 394Q408 341 361 308T220 275Q126 275 77 308T28 393V406H144Q144 357 212 357Q280 357 280 412Q280 433
267 444T234 455H186V529H224Q244 529 257 540T270 572Q270 591 255 605T212 619Q184 619 168 606T152 574H43V589Q43 620 64 645T126 686T223 701Q304 701 351 669ZM260 -12L670 700H766L355 -12H260ZM811 374T758 298T653 173H783V258Q803 286 824 321T851 380H907V173H970V85H907V0H783V85H563V174Q598
221 633 287T689 420H817Q811 374 758 298Z" />
<glyph unicode="&#xbf;" glyph-name="questiondown" horiz-adv-x="611" d="M202 342V527H400V342H202ZM388 207T373 188T326 138Q293 109 276 86T258 35Q258 6 276 -14T324 -35Q389 -35 389 49Q389 67 388 76H572Q573 69 574 60T575 38Q575 -26 540 -73T443 -147T302
-173Q226 -173 168 -148T78 -77T46 31Q46 70 63 100T103 152T161 198Q190 220 203 233T217 260V281H388V231Q388 207 373 188Z" />
<glyph unicode="&#xc0;" glyph-name="Agrave" horiz-adv-x="778" d="M198 881L200 885H393L485 752H358L198 881ZM506 97H265L236 0H10L261 688H518L769 0H535L506 97ZM460 251L388 496H384L311 251H460Z" />
<glyph unicode="&#xc1;" glyph-name="Aacute" horiz-adv-x="778" d="M293 752L385 885H578L580 881L420 752H293ZM506 97H265L236 0H10L261 688H518L769 0H535L506 97ZM460 251L388 496H384L311 251H460Z" />
<glyph unicode="&#xc2;" glyph-name="Acircumflex" horiz-adv-x="778" d="M462 740L388 817L314 740H186L325 885H453L592 740H462ZM535 0L506 97H265L236 0H10L261 688H518L769 0H535ZM311 251H460L388 496H384L311 251Z" />
<glyph unicode="&#xc3;" glyph-name="Atilde" horiz-adv-x="778" d="M611 849T593 816T543 763T471 742Q449 742 429 747T377 763Q352 772 334 777T298 782Q280 782 267 771T248 742H167Q167 778 185 811T235 864T307 885Q329 885 349 880T401 864Q426 855 444
850T480 845Q498 845 511 856T530 885H611Q611 849 593 816ZM535 0L506 97H265L236 0H10L261 688H518L769 0H535ZM311 251H460L388 496H384L311 251Z" />
<glyph unicode="&#xc4;" glyph-name="Adieresis" horiz-adv-x="778" d="M203 746V885H355V746H203ZM423 746V885H575V746H423ZM535 0L506 97H265L236 0H10L261 688H518L769 0H535ZM311 251H460L388 496H384L311 251Z" />
<glyph unicode="&#xc5;" glyph-name="Aring" horiz-adv-x="778" d="M434 954T466 922T498 845Q498 801 466 769T389 737Q344 737 312 768T280 845Q280 890 312 922T389 954Q434 954 466 922ZM371 885T360 874T349 844Q349 827 360 816T389 805Q407 805 418 816T429
846Q429 863 418 874T389 885Q371 885 360 874ZM535 0L506 97H265L236 0H10L261 688H518L769 0H535ZM311 251H460L388 496H384L311 251Z" />
<glyph unicode="&#xc6;" glyph-name="AE" horiz-adv-x="1000" d="M245 97L211 0H-15L276 688H955V523H590L612 428H899V270H649L673 165H962V0H501L479 97H245ZM445 251L391 496H387L300 251H445Z" />
<glyph unicode="&#xc7;" glyph-name="Ccedilla" horiz-adv-x="778" d="M555 700T644 624T733 405H522Q522 465 491 500T401 535Q334 535 303 493T271 376V312Q271 238 302 196T399 153Q463 153 496 186T529 279H733Q733 143 652 68T421 -12L418 -29Q511 -38 511
-118Q511 -169 475 -190T393 -211Q358 -211 323 -207T267 -195V-141Q278 -142 315 -145T384 -149Q424 -149 424 -118Q424 -102 416 -94T386 -86H348L359 -11Q204 -1 125 89T45 344Q45 520 135 610T402 700Q555 700 644 624Z" />
<glyph unicode="&#xc8;" glyph-name="Egrave" horiz-adv-x="722" d="M195 881L197 885H390L482 752H355L195 881ZM74 688H669V523H295V428H615V270H295V165H676V0H74V688Z" />
<glyph unicode="&#xc9;" glyph-name="Eacute" horiz-adv-x="722" d="M290 752L382 885H575L577 881L417 752H290ZM74 688H669V523H295V428H615V270H295V165H676V0H74V688Z" />
<glyph unicode="&#xca;" glyph-name="Ecircumflex" horiz-adv-x="722" d="M459 740L385 817L311 740H183L322 885H450L589 740H459ZM74 688H669V523H295V428H615V270H295V165H676V0H74V688Z" />
<glyph unicode="&#xcb;" glyph-name="Edieresis" horiz-adv-x="722" d="M200 746V885H352V746H200ZM420 746V885H572V746H420ZM74 688H669V523H295V428H615V270H295V165H676V0H74V688Z" />
<glyph unicode="&#xcc;" glyph-name="Igrave" horiz-adv-x="389" d="M4 881L6 885H199L291 752H164L4 881ZM84 688H305V0H84V688Z" />
<glyph unicode="&#xcd;" glyph-name="Iacute" horiz-adv-x="389" d="M99 752L191 885H384L386 881L226 752H99ZM84 688H305V0H84V688Z" />
<glyph unicode="&#xce;" glyph-name="Icircumflex" horiz-adv-x="389" d="M268 740L194 817L120 740H-8L131 885H259L398 740H268ZM84 0V688H305V0H84Z" />
<glyph unicode="&#xcf;" glyph-name="Idieresis" horiz-adv-x="389" d="M9 746V885H161V746H9ZM229 746V885H381V746H229ZM84 0V688H305V0H84Z" />
<glyph unicode="&#xd0;" glyph-name="Eth" horiz-adv-x="778" d="M74 402V688H372Q733 688 733 344Q733 0 372 0H74V304H1V402H74ZM295 165H368Q507 165 507 314V374Q507 523 368 523H295V402H392V304H295V165Z" />
<glyph unicode="&#xd1;" glyph-name="Ntilde" horiz-adv-x="833" d="M639 849T621 816T571 763T499 742Q477 742 457 747T404 763Q379 772 361 777T326 782Q307 782 294 771T275 742H194Q194 778 212 811T262 864T334 885Q356 885 376 880T429 864Q454 855 472
850T507 845Q526 845 539 856T558 885H639Q639 849 621 816ZM566 0L277 334V0H74V688H267L556 349V688H759V0H566Z" />
<glyph unicode="&#xd2;" glyph-name="Ograve" horiz-adv-x="833" d="M226 881L228 885H420L513 752H386L226 881ZM594 700T691 609T788 344Q788 170 691 79T416 -12Q238 -12 142 78T45 344Q45 519 141 609T416 700Q594 700 691 609ZM345 535T308 492T271 376V312Q271
239 308 196T416 153Q487 153 524 196T562 312V376Q562 449 525 492T416 535Q345 535 308 492Z" />
<glyph unicode="&#xd3;" glyph-name="Oacute" horiz-adv-x="833" d="M320 752L413 885H605L607 881L448 752H320ZM594 700T691 609T788 344Q788 170 691 79T416 -12Q238 -12 142 78T45 344Q45 519 141 609T416 700Q594 700 691 609ZM345 535T308 492T271 376V312Q271
239 308 196T416 153Q487 153 524 196T562 312V376Q562 449 525 492T416 535Q345 535 308 492Z" />
<glyph unicode="&#xd4;" glyph-name="Ocircumflex" horiz-adv-x="833" d="M490 740L416 817L341 740H213L353 885H480L620 740H490ZM594 700T691 609T788 344Q788 170 691 79T416 -12Q238 -12 142 78T45 344Q45 519 141 609T416 700Q594 700 691 609ZM345 535T308
492T271 376V312Q271 239 308 196T416 153Q487 153 524 196T562 312V376Q562 449 525 492T416 535Q345 535 308 492Z" />
<glyph unicode="&#xd5;" glyph-name="Otilde" horiz-adv-x="833" d="M639 849T621 816T571 763T499 742Q477 742 457 747T404 763Q379 772 361 777T326 782Q307 782 294 771T275 742H194Q194 778 212 811T262 864T334 885Q356 885 376 880T429 864Q454 855 472
850T507 845Q526 845 539 856T558 885H639Q639 849 621 816ZM594 700T691 609T788 344Q788 170 691 79T416 -12Q238 -12 142 78T45 344Q45 519 141 609T416 700Q594 700 691 609ZM345 535T308 492T271 376V312Q271 239 308 196T416 153Q487 153 524 196T562 312V376Q562
449 525 492T416 535Q345 535 308 492Z" />
<glyph unicode="&#xd6;" glyph-name="Odieresis" horiz-adv-x="833" d="M230 746V885H382V746H230ZM451 746V885H603V746H451ZM594 700T691 609T788 344Q788 170 691 79T416 -12Q238 -12 142 78T45 344Q45 519 141 609T416 700Q594 700 691 609ZM345 535T308 492T271
376V312Q271 239 308 196T416 153Q487 153 524 196T562 312V376Q562 449 525 492T416 535Q345 535 308 492Z" />
<glyph unicode="&#xd7;" glyph-name="multiply" horiz-adv-x="660" d="M423 264L592 96L498 2L330 171L162 2L68 96L237 264L68 432L162 526L330 357L498 526L592 432L423 264Z" />
<glyph unicode="&#xd8;" glyph-name="Oslash" horiz-adv-x="833" d="M788 522T788 344Q788 170 691 79T416 -12Q295 -12 214 28L162 -36H54L144 76Q45 167 45 344Q45 519 141 609T416 700Q533 700 618 659L671 725H779L687 612Q788 522 788 344ZM345 535T308 492T271
376V312Q271 273 281 244L499 513Q464 535 416 535Q345 535 308 492ZM368 153T416 153Q487 153 524 196T562 312V376Q562 413 551 444L333 175Q368 153 416 153Z" />
<glyph unicode="&#xd9;" glyph-name="Ugrave" horiz-adv-x="833" d="M226 881L228 885H420L513 752H386L226 881ZM759 136T670 62T417 -12Q253 -12 164 62T74 277V688H295V280Q295 222 326 188T416 153Q475 153 506 188T538 280V688H759V277Q759 136 670 62Z" />
<glyph unicode="&#xda;" glyph-name="Uacute" horiz-adv-x="833" d="M320 752L413 885H605L607 881L448 752H320ZM759 136T670 62T417 -12Q253 -12 164 62T74 277V688H295V280Q295 222 326 188T416 153Q475 153 506 188T538 280V688H759V277Q759 136 670 62Z" />
<glyph unicode="&#xdb;" glyph-name="Ucircumflex" horiz-adv-x="833" d="M490 740L416 817L341 740H213L353 885H480L620 740H490ZM759 136T670 62T417 -12Q253 -12 164 62T74 277V688H295V280Q295 222 326 188T416 153Q475 153 506 188T538 280V688H759V277Q759
136 670 62Z" />
<glyph unicode="&#xdc;" glyph-name="Udieresis" horiz-adv-x="833" d="M230 746V885H382V746H230ZM451 746V885H603V746H451ZM759 136T670 62T417 -12Q253 -12 164 62T74 277V688H295V280Q295 222 326 188T416 153Q475 153 506 188T538 280V688H759V277Q759 136 670 62Z" />
<glyph unicode="&#xdd;" glyph-name="Yacute" horiz-adv-x="778" d="M293 752L385 885H578L580 881L420 752H293ZM280 0V267L7 688H261L393 459H397L529 688H770L501 267V0H280Z" />
<glyph unicode="&#xde;" glyph-name="Thorn" horiz-adv-x="722" d="M460 588Q524 588 574 559T652 478T680 362V349Q680 285 652 233T574 152T460 122H295V0H74V688H295V588H460ZM295 283H386Q421 283 438 301T456 350V358Q456 390 439 407T386 425H295V283Z" />
<glyph unicode="&#xdf;" glyph-name="germandbls" horiz-adv-x="667" d="M444 737T520 693T597 548Q597 499 572 459T503 400V395Q556 376 590 325T624 214Q624 110 557 55T378 0H314V136H342Q376 136 400 163T425 229Q425 269 401 297T342 325H314V466H341Q369
466 387 485T406 534Q406 564 387 583T336 603Q304 603 285 584T266 534V0H67V517Q67 592 105 641T205 714T336 737Q444 737 520 693Z" />
<glyph unicode="&#xe0;" glyph-name="agrave" horiz-adv-x="667" d="M130 721L132 725H325L417 592H291L130 721ZM442 540T518 500T594 368V162Q594 145 602 134T626 123H662V8Q659 6 647 2T611 -7T558 -12Q500 -12 463 5T411 54Q373 24 326 6T216 -12Q30 -12
30 136Q30 213 71 253T191 309T395 324V350Q395 381 374 397T318 413Q287 413 265 402T242 367V363H46Q45 368 45 377Q45 452 116 496T321 540Q442 540 518 500ZM310 230T270 212T229 162Q229 112 297 112Q336 112 365 133T395 185V230Q310 230 270 212Z" />
<glyph unicode="&#xe1;" glyph-name="aacute" horiz-adv-x="667" d="M225 592L317 725H510L512 721L353 592H225ZM442 540T518 500T594 368V162Q594 145 602 134T626 123H662V8Q659 6 647 2T611 -7T558 -12Q500 -12 463 5T411 54Q373 24 326 6T216 -12Q30 -12
30 136Q30 213 71 253T191 309T395 324V350Q395 381 374 397T318 413Q287 413 265 402T242 367V363H46Q45 368 45 377Q45 452 116 496T321 540Q442 540 518 500ZM310 230T270 212T229 162Q229 112 297 112Q336 112 365 133T395 185V230Q310 230 270 212Z" />
<glyph unicode="&#xe2;" glyph-name="acircumflex" horiz-adv-x="667" d="M407 580L333 657L258 580H130L270 725H397L537 580H407ZM442 540T518 500T594 368V162Q594 145 602 134T626 123H662V8Q659 6 647 2T611 -7T558 -12Q500 -12 463 5T411 54Q373 24 326
6T216 -12Q30 -12 30 136Q30 213 71 253T191 309T395 324V350Q395 381 374 397T318 413Q287 413 265 402T242 367V363H46Q45 368 45 377Q45 452 116 496T321 540Q442 540 518 500ZM310 230T270 212T229 162Q229 112 297 112Q336 112 365 133T395 185V230Q310 230
270 212Z" />
<glyph unicode="&#xe3;" glyph-name="atilde" horiz-adv-x="667" d="M556 689T538 656T488 603T416 582Q394 582 374 587T321 603Q296 612 278 617T243 622Q224 622 211 611T192 582H111Q111 618 129 651T179 704T251 725Q273 725 293 720T346 704Q371 695 389
690T424 685Q443 685 456 696T475 725H556Q556 689 538 656ZM442 540T518 500T594 368V162Q594 145 602 134T626 123H662V8Q659 6 647 2T611 -7T558 -12Q500 -12 463 5T411 54Q373 24 326 6T216 -12Q30 -12 30 136Q30 213 71 253T191 309T395 324V350Q395 381 374
397T318 413Q287 413 265 402T242 367V363H46Q45 368 45 377Q45 452 116 496T321 540Q442 540 518 500ZM310 230T270 212T229 162Q229 112 297 112Q336 112 365 133T395 185V230Q310 230 270 212Z" />
<glyph unicode="&#xe4;" glyph-name="adieresis" horiz-adv-x="667" d="M147 586V725H299V586H147ZM368 586V725H520V586H368ZM442 540T518 500T594 368V162Q594 145 602 134T626 123H662V8Q659 6 647 2T611 -7T558 -12Q500 -12 463 5T411 54Q373 24 326 6T216
-12Q30 -12 30 136Q30 213 71 253T191 309T395 324V350Q395 381 374 397T318 413Q287 413 265 402T242 367V363H46Q45 368 45 377Q45 452 116 496T321 540Q442 540 518 500ZM310 230T270 212T229 162Q229 112 297 112Q336 112 365 133T395 185V230Q310 230 270
212Z" />
<glyph unicode="&#xe5;" glyph-name="aring" horiz-adv-x="667" d="M378 794T410 763T442 685Q442 641 411 609T333 577Q289 577 257 608T225 685Q225 730 256 762T333 794Q378 794 410 763ZM316 725T305 714T293 684Q293 667 304 656T333 645Q351 645 362 656T374
686Q374 703 362 714T333 725Q316 725 305 714ZM442 540T518 500T594 368V162Q594 145 602 134T626 123H662V8Q659 6 647 2T611 -7T558 -12Q500 -12 463 5T411 54Q373 24 326 6T216 -12Q30 -12 30 136Q30 213 71 253T191 309T395 324V350Q395 381 374 397T318 413Q287
413 265 402T242 367V363H46Q45 368 45 377Q45 452 116 496T321 540Q442 540 518 500ZM310 230T270 212T229 162Q229 112 297 112Q336 112 365 133T395 185V230Q310 230 270 212Z" />
<glyph unicode="&#xe6;" glyph-name="ae" horiz-adv-x="1000" d="M972 540T972 264V230H596Q596 173 619 144T692 115Q737 115 758 136T779 192H972Q972 96 904 42T706 -12Q549 -12 472 61Q374 -12 256 -12Q145 -12 88 23T30 146Q30 218 71 257T191 310T395 324V350Q395
381 375 397T322 413Q289 413 266 402T242 367V363H46Q45 368 45 377Q45 452 116 496T321 540Q449 540 518 492Q590 540 694 540Q972 540 972 264ZM607 413T597 324H771Q771 366 749 389T688 413Q607 413 597 324ZM310 230T270 212T229 162Q229 112 297 112Q336
112 365 133T395 185V230Q310 230 270 212Z" />
<glyph unicode="&#xe7;" glyph-name="ccedilla" horiz-adv-x="667" d="M463 540T543 485T624 315H431Q431 405 333 405Q235 405 235 292V235Q235 123 337 123Q439 123 439 215H624Q624 108 553 52T365 -11L363 -29Q456 -38 456 -118Q456 -169 420 -190T337 -211Q303
-211 268 -207T211 -195V-141Q222 -142 259 -145T329 -149Q369 -149 369 -118Q369 -86 331 -86H292L304 -11Q178 -3 107 66T36 264Q36 400 115 470T333 540Q463 540 543 485Z" />
<glyph unicode="&#xe8;" glyph-name="egrave" horiz-adv-x="667" d="M143 721L145 725H337L430 592H303L143 721ZM478 540T554 472T631 264V230H235Q235 173 260 144T341 115Q391 115 414 136T438 192H631Q631 96 558 42T345 -12Q198 -12 117 56T36 264Q36 400
115 470T333 540Q478 540 554 472ZM247 413T236 324H430Q430 365 407 389T341 413Q247 413 236 324Z" />
<glyph unicode="&#xe9;" glyph-name="eacute" horiz-adv-x="667" d="M237 592L330 725H522L524 721L365 592H237ZM478 540T554 472T631 264V230H235Q235 173 260 144T341 115Q391 115 414 136T438 192H631Q631 96 558 42T345 -12Q198 -12 117 56T36 264Q36 400
115 470T333 540Q478 540 554 472ZM247 413T236 324H430Q430 365 407 389T341 413Q247 413 236 324Z" />
<glyph unicode="&#xea;" glyph-name="ecircumflex" horiz-adv-x="667" d="M407 580L333 657L258 580H130L270 725H397L537 580H407ZM478 540T554 472T631 264V230H235Q235 173 260 144T341 115Q391 115 414 136T438 192H631Q631 96 558 42T345 -12Q198 -12 117
56T36 264Q36 400 115 470T333 540Q478 540 554 472ZM247 413T236 324H430Q430 365 407 389T341 413Q247 413 236 324Z" />
<glyph unicode="&#xeb;" glyph-name="edieresis" horiz-adv-x="667" d="M147 586V725H299V586H147ZM368 586V725H520V586H368ZM478 540T554 472T631 264V230H235Q235 173 260 144T341 115Q391 115 414 136T438 192H631Q631 96 558 42T345 -12Q198 -12 117 56T36
264Q36 400 115 470T333 540Q478 540 554 472ZM247 413T236 324H430Q430 365 407 389T341 413Q247 413 236 324Z" />
<glyph unicode="&#xec;" glyph-name="igrave" horiz-adv-x="333" d="M-24 721L-22 725H170L263 592H136L-24 721ZM67 528H266V0H67V528Z" />
<glyph unicode="&#xed;" glyph-name="iacute" horiz-adv-x="333" d="M70 592L163 725H355L357 721L198 592H70ZM67 528H266V0H67V528Z" />
<glyph unicode="&#xee;" glyph-name="icircumflex" horiz-adv-x="333" d="M240 580L166 657L91 580H-37L103 725H230L370 580H240ZM67 0V528H266V0H67Z" />
<glyph unicode="&#xef;" glyph-name="idieresis" horiz-adv-x="333" d="M-20 586V725H132V586H-20ZM201 586V725H353V586H201ZM67 0V528H266V0H67Z" />
<glyph unicode="&#xf0;" glyph-name="eth" horiz-adv-x="667" d="M368 722T387 710T431 678L570 694V616L502 608Q631 457 631 264Q631 129 552 59T333 -12Q194 -12 115 58T36 264Q36 341 68 400T159 491T298 524Q336 524 364 516Q344 547 314 586L149 567V645L247
656Q202 697 164 721L165 725H363Q368 722 387 710ZM235 405T235 292V235Q235 123 333 123Q432 123 432 235V292Q432 405 333 405Q235 405 235 292Z" />
<glyph unicode="&#xf1;" glyph-name="ntilde" horiz-adv-x="667" d="M556 689T538 656T488 603T416 582Q394 582 374 587T321 603Q296 612 278 617T243 622Q224 622 211 611T192 582H111Q111 618 129 651T179 704T251 725Q273 725 293 720T346 704Q371 695 389
690T424 685Q443 685 456 696T475 725H556Q556 689 538 656ZM516 540T562 489T608 342V0H409V318Q409 352 392 372T342 393Q305 393 282 369T259 310V0H60V528H223L236 448Q267 490 317 515T424 540Q516 540 562 489Z" />
<glyph unicode="&#xf2;" glyph-name="ograve" horiz-adv-x="667" d="M143 721L145 725H337L430 592H303L143 721ZM472 540T551 470T631 264Q631 129 552 59T333 -12Q194 -12 115 58T36 264Q36 400 115 470T333 540Q472 540 551 470ZM235 405T235 292V235Q235 123
333 123Q432 123 432 235V292Q432 405 333 405Q235 405 235 292Z" />
<glyph unicode="&#xf3;" glyph-name="oacute" horiz-adv-x="667" d="M237 592L330 725H522L524 721L365 592H237ZM472 540T551 470T631 264Q631 129 552 59T333 -12Q194 -12 115 58T36 264Q36 400 115 470T333 540Q472 540 551 470ZM235 405T235 292V235Q235 123
333 123Q432 123 432 235V292Q432 405 333 405Q235 405 235 292Z" />
<glyph unicode="&#xf4;" glyph-name="ocircumflex" horiz-adv-x="667" d="M407 580L333 657L258 580H130L270 725H397L537 580H407ZM472 540T551 470T631 264Q631 129 552 59T333 -12Q194 -12 115 58T36 264Q36 400 115 470T333 540Q472 540 551 470ZM235 405T235
292V235Q235 123 333 123Q432 123 432 235V292Q432 405 333 405Q235 405 235 292Z" />
<glyph unicode="&#xf5;" glyph-name="otilde" horiz-adv-x="667" d="M556 689T538 656T488 603T416 582Q394 582 374 587T321 603Q296 612 278 617T243 622Q224 622 211 611T192 582H111Q111 618 129 651T179 704T251 725Q273 725 293 720T346 704Q371 695 389
690T424 685Q443 685 456 696T475 725H556Q556 689 538 656ZM472 540T551 470T631 264Q631 129 552 59T333 -12Q194 -12 115 58T36 264Q36 400 115 470T333 540Q472 540 551 470ZM235 405T235 292V235Q235 123 333 123Q432 123 432 235V292Q432 405 333 405Q235
405 235 292Z" />
<glyph unicode="&#xf6;" glyph-name="odieresis" horiz-adv-x="667" d="M147 586V725H299V586H147ZM368 586V725H520V586H368ZM472 540T551 470T631 264Q631 129 552 59T333 -12Q194 -12 115 58T36 264Q36 400 115 470T333 540Q472 540 551 470ZM235 405T235 292V235Q235
123 333 123Q432 123 432 235V292Q432 405 333 405Q235 405 235 292Z" />
<glyph unicode="&#xf7;" glyph-name="divide" horiz-adv-x="660" d="M266 377V508H397V377H266ZM66 196V328H594V196H66ZM266 15V146H397V15H266Z" />
<glyph unicode="&#xf8;" glyph-name="oslash" horiz-adv-x="667" d="M631 398T631 264Q631 129 552 59T333 -12Q249 -12 185 14L138 -45H46L123 51Q36 124 36 264Q36 400 115 470T333 540Q425 540 490 509L530 559H622L551 470Q631 398 631 264ZM235 405T235 292V235Q235
213 238 195L393 389Q369 405 333 405Q235 405 235 292ZM303 123T333 123Q432 123 432 235V292Q432 302 430 320L281 134Q303 123 333 123Z" />
<glyph unicode="&#xf9;" glyph-name="ugrave" horiz-adv-x="667" d="M143 721L145 725H337L430 592H303L143 721ZM430 80Q399 37 349 13T242 -12Q150 -12 104 39T58 186V528H257V210Q257 176 274 156T324 135Q361 135 384 159T407 218V528H606V0H443L430 80Z" />
<glyph unicode="&#xfa;" glyph-name="uacute" horiz-adv-x="667" d="M237 592L330 725H522L524 721L365 592H237ZM430 80Q399 37 349 13T242 -12Q150 -12 104 39T58 186V528H257V210Q257 176 274 156T324 135Q361 135 384 159T407 218V528H606V0H443L430 80Z" />
<glyph unicode="&#xfb;" glyph-name="ucircumflex" horiz-adv-x="667" d="M407 580L333 657L258 580H130L270 725H397L537 580H407ZM443 0L430 80Q399 37 349 13T242 -12Q150 -12 104 39T58 186V528H257V210Q257 176 274 156T324 135Q361 135 384 159T407 218V528H606V0H443Z"
/>
<glyph unicode="&#xfc;" glyph-name="udieresis" horiz-adv-x="667" d="M147 586V725H299V586H147ZM368 586V725H520V586H368ZM443 0L430 80Q399 37 349 13T242 -12Q150 -12 104 39T58 186V528H257V210Q257 176 274 156T324 135Q361 135 384 159T407 218V528H606V0H443Z" />
<glyph unicode="&#xfd;" glyph-name="yacute" horiz-adv-x="611" d="M209 592L302 725H495L497 721L337 592H209ZM382 -95T323 -152T156 -210Q91 -210 41 -192V-73H121Q196 -73 210 0L0 528H214L315 177H322L415 528H611L423 16Q382 -95 323 -152Z" />
<glyph unicode="&#xfe;" glyph-name="thorn" horiz-adv-x="667" d="M316 540T408 540Q515 540 573 470T631 263Q631 127 573 58T408 -12Q316 -12 260 48V-197H61V725H260V478Q316 540 408 540ZM302 393T280 362T258 281V248Q258 198 280 167T346 135Q432 135 432
238V291Q432 393 346 393Q302 393 280 362Z" />
<glyph unicode="&#xff;" glyph-name="ydieresis" horiz-adv-x="611" d="M120 586V725H271V586H120ZM340 586V725H492V586H340ZM382 -95T323 -152T156 -210Q91 -210 41 -192V-73H121Q196 -73 210 0L0 528H214L315 177H322L415 528H611L423 16Q382 -95 323 -152Z" />
<glyph unicode="&#x2013;" glyph-name="endash" horiz-adv-x="500" d="M0 196V334H500V196H0Z" />
<glyph unicode="&#x2014;" glyph-name="emdash" horiz-adv-x="1000" d="M0 196V334H1002V196H0Z" />
<glyph unicode="&#x2018;" glyph-name="quoteleft" horiz-adv-x="278" d="M230 506V331H44V496L135 688H230L159 506H230Z" />
<glyph unicode="&#x2019;" glyph-name="quoteright" horiz-adv-x="278" d="M143 331H48L119 513H48V688H234V523L143 331Z" />
<glyph unicode="&#x201a;" glyph-name="quotesinglbase" horiz-adv-x="278" d="M139 -182H44L115 0H44V175H230V10L139 -182Z" />
<glyph unicode="&#x201c;" glyph-name="quotedblleft" horiz-adv-x="500" d="M227 506V331H41V496L132 688H227L156 506H227ZM456 506V331H270V496L361 688H456L385 506H456Z" />
<glyph unicode="&#x201d;" glyph-name="quotedblright" horiz-adv-x="500" d="M139 331H44L115 513H44V688H230V523L139 331ZM368 331H273L344 513H273V688H459V523L368 331Z" />
<glyph unicode="&#x201e;" glyph-name="quotedblbase" horiz-adv-x="500" d="M139 -182H44L115 0H44V175H230V10L139 -182ZM368 -182H273L344 0H273V175H459V10L368 -182Z" />
<glyph unicode="&#x2022;" glyph-name="bullet" horiz-adv-x="500" d="M294 507T331 485T390 426T412 345Q412 301 390 264T331 205T250 183Q206 183 169 205T110 264T88 345Q88 389 110 426T169 485T250 507Q294 507 331 485Z" />
<glyph unicode="&#x2039;" glyph-name="guilsinglleft" horiz-adv-x="333" d="M321 119H178L11 324L178 528H321L183 324L321 119Z" />
<glyph unicode="&#x203a;" glyph-name="guilsinglright" horiz-adv-x="333" d="M155 528L322 324L155 119H12L150 324L12 528H155Z" />
</font>
</defs>
</svg>
